<?xml version="1.0" standalone="no"?>
<!DOCTYPE svg PUBLIC "-//W3C//DTD SVG 1.1//EN" "http://www.w3.org/Graphics/SVG/1.1/DTD/svg11.dtd" >
<svg xmlns="http://www.w3.org/2000/svg" xmlns:xlink="http://www.w3.org/1999/xlink" version="1.1">
<metadata>
Created by FontForge 20141024 at Wed Jun  3 14:17:43 2015
 By System Administrator
Copyright (c) ParaType, 1998. All rights reserved.
</metadata>
<defs>
<font id="YanusC" horiz-adv-x="584" >
  <font-face 
    font-family="YanusCTT"
    font-weight="400"
    font-stretch="normal"
    units-per-em="1000"
    panose-1="2 0 5 6 5 0 0 2 0 3"
    ascent="800"
    descent="-200"
    x-height="486"
    cap-height="700"
    bbox="-347 -256 1200 960"
    underline-thickness="50"
    underline-position="-75"
    unicode-range="U+0001-2122"
  />
<missing-glyph horiz-adv-x="500" 
d="M50 0h400v512h-400v-512zM58 8v496h384v-496h-384z" />
    <glyph glyph-name=".notdef" unicode="&#x201b;" horiz-adv-x="500" 
d="M50 0h400v512h-400v-512zM58 8v496h384v-496h-384z" />
    <glyph glyph-name=".notdef" unicode="&#x201f;" horiz-adv-x="500" 
d="M50 0h400v512h-400v-512zM58 8v496h384v-496h-384z" />
    <glyph glyph-name=".null" horiz-adv-x="0" 
 />
    <glyph glyph-name="nonmarkingreturn" horiz-adv-x="233" 
 />
    <glyph glyph-name="acute" horiz-adv-x="471" 
d="M260 700l-92 -153h60l143 153h-111z" />
    <glyph glyph-name="Acute" horiz-adv-x="393" 
d="M211 894l-101 -138h71l162 138h-132z" />
    <glyph glyph-name="breve" horiz-adv-x="464" 
d="M303 682q0 -9 -2.5 -19t-7.5 -18q-11 -17 -27.5 -21t-33.5 -4t-33.5 4t-27.5 21q-5 8 -7.5 18t-2.5 19h-56q-1 -5 -1 -11v-10q0 -55 42 -83q22 -14 44 -18.5t42 -4.5t42 4.5t44 18.5q42 28 42 83v10q0 6 -1 11h-56z" />
    <glyph glyph-name="Breve" horiz-adv-x="476" 
d="M313 878q-1 -8 -3.5 -19t-7.5 -18q-11 -17 -29.5 -21t-34.5 -4t-34.5 4t-29.5 21q-5 7 -7.5 18t-3.5 19h-58q-1 -5 -1 -10v-9q0 -34 12.5 -53.5t23.5 -27.5q21 -17 47.5 -21.5t50.5 -4.5t50.5 4.5t47.5 21.5q11 8 23.5 27.5t12.5 53.5v9q0 5 -1 10h-58z" />
    <glyph glyph-name="caron" horiz-adv-x="486" 
d="M98 700l92 -153h106l92 153h-64l-81 -95l-82 95h-63z" />
    <glyph glyph-name="Caron" horiz-adv-x="516" 
d="M98 894l102 -138h116l102 138h-70l-90 -82l-90 82h-70z" />
    <glyph glyph-name="cedilla" unicode="&#x9;" horiz-adv-x="345" 
d="M118 -176q16 -9 36 -15q12 -4 24.5 -6t29.5 -2q19 0 37.5 4t35.5 17q16 13 22.5 27.5t6.5 30.5q0 14 -4 26t-15 23q-12 11 -25.5 16t-24.5 7q-5 1 -12 1.5t-20 0.5l7 46h-46l-13 -86q6 1 12.5 1.5t14.5 0.5q13 0 25 -2t22 -7q17 -10 17 -27q0 -8 -4 -14.5t-9 -10.5
q-8 -5 -17 -6.5t-18 -1.5q-8 0 -15.5 1t-16.5 4q-15 5 -31 13z" />
    <glyph glyph-name="Cedilla" unicode="&#xa;" horiz-adv-x="354" 
d="M118 -185q9 -5 19 -9t20 -7q14 -5 28 -6.5t29 -1.5q18 0 38 4t37 18t23.5 29.5t6.5 31.5q0 14 -4 27t-15 24q-13 14 -29 18.5t-24 6.5q-6 1 -13.5 1.5t-20.5 0.5l8 48h-49l-13 -90q6 1 13 1.5t15 0.5q14 0 27 -1.5t24 -8.5q16 -10 16 -28q0 -16 -13 -26q-8 -6 -16.5 -7.5
t-16.5 -1.5q-11 0 -19 1t-19 5q-8 2 -17 6t-15 7z" />
    <glyph glyph-name="circumflex" horiz-adv-x="486" 
d="M98 547h63l82 95l81 -95h64l-92 153h-106z" />
    <glyph glyph-name="Circumflex" horiz-adv-x="516" 
d="M98 756h70l90 82l90 -82h70l-102 138h-116z" />
    <glyph glyph-name="commainferior" unicode="&#xd;" horiz-adv-x="184" 
d="M139 -169v114h-94v-181z" />
    <glyph glyph-name="Commainferior" horiz-adv-x="188" 
d="M143 -184v123h-98v-195z" />
    <glyph glyph-name="dotlessi" horiz-adv-x="229" 
d="M35 486v-70h56v-416h88v486h-144z" />
    <glyph glyph-name="Commasuperior" horiz-adv-x="234" 
d="M139 577v123h-94v-195z" />
    <glyph glyph-name="dieresis" horiz-adv-x="500" 
d="M278 619q0 -25 17.5 -42.5t42.5 -17.5t42.5 17.5t17.5 42.5t-17.5 42.5t-42.5 17.5t-42.5 -17.5t-17.5 -42.5zM102 619q0 -25 17.5 -42.5t42.5 -17.5t42.5 17.5t17.5 42.5t-17.5 42.5t-42.5 17.5t-42.5 -17.5t-17.5 -42.5z" />
    <glyph glyph-name="Dieresis" horiz-adv-x="519" 
d="M291 828q0 -22 16.5 -42.5t46.5 -20.5q27 0 45 18t18 45q0 26 -17.5 44.5t-45.5 18.5q-16 0 -27.5 -6t-19.5 -15.5t-12 -20.5t-4 -21zM102 828q0 -27 18 -45t45 -18q30 0 46.5 20.5t16.5 42.5q0 10 -4 21t-12 20.5t-19.5 15.5t-27.5 6q-28 0 -45.5 -18.5t-17.5 -44.5z
" />
    <glyph glyph-name="dotaccent" horiz-adv-x="496" 
d="M180 606q0 -29 19.5 -48.5t48.5 -19.5t48.5 19.5t19.5 48.5t-19.5 48.5t-48.5 19.5t-48.5 -19.5t-19.5 -48.5z" />
    <glyph glyph-name="Dotaccent" horiz-adv-x="500" 
d="M180 822q0 -18 7 -31t17.5 -21.5t22.5 -13t23 -4.5q10 0 22.5 4.5t23 13t17.5 21.5t7 31q0 29 -20 49.5t-50 20.5t-50 -20.5t-20 -49.5z" />
    <glyph glyph-name="Grave" horiz-adv-x="393" 
d="M182 894h-132l162 -138h71z" />
    <glyph glyph-name="hungarumlaut" horiz-adv-x="627" 
d="M260 700l-92 -153h60l143 153h-111zM416 700l-92 -153h60l143 153h-111z" />
    <glyph glyph-name="Hungarumlaut" horiz-adv-x="547" 
d="M207 894l-97 -138h60l159 138h-122zM385 894l-97 -138h60l159 138h-122z" />
    <glyph glyph-name="macron" horiz-adv-x="500" 
d="M115 570h270v72h-270v-72z" />
    <glyph glyph-name="Macron" horiz-adv-x="514" 
d="M115 783h284v75h-284v-75z" />
    <glyph glyph-name="ring" horiz-adv-x="450" 
d="M125 650q0 -21 7.5 -39.5t21 -32t32 -21t39.5 -7.5t39 7.5t31.5 21t21.5 32t8 39.5t-8 39t-21.5 31.5t-31.5 21.5t-39 8t-39.5 -8t-32 -21.5t-21 -31.5t-7.5 -39zM179 650q0 20 13 33t33 13t33 -13t13 -33t-13 -33t-33 -13t-33 13t-13 33z" />
    <glyph glyph-name="Ring" horiz-adv-x="458" 
d="M125 856q0 -21 8 -41.5t23 -34.5q13 -12 32 -20t41 -8q21 0 39.5 7.5t32.5 19.5q16 15 24 35.5t8 41.5q0 20 -7 39.5t-23 35.5q-28 29 -74 29q-20 0 -38 -6t-33 -20t-24 -34.5t-9 -43.5zM181 856q0 18 12.5 33t35.5 15q15 0 31.5 -11.5t16.5 -36.5q0 -23 -15.5 -35.5
t-32.5 -12.5q-19 0 -33.5 13t-14.5 35z" />
    <glyph glyph-name="tilde" horiz-adv-x="549" 
d="M401 664q-2 -5 -5.5 -12t-11.5 -14q-15 -14 -37 -14q-13 0 -21.5 2.5t-18.5 6.5l-38 15q-12 5 -28 10.5t-34 5.5q-19 0 -36.5 -7.5t-31.5 -20.5q-10 -10 -19 -24.5t-15 -28.5l43 -26q2 5 5.5 12t11.5 14q15 14 37 14q18 0 36 -7l37 -15q17 -7 33.5 -12.5t33.5 -5.5
q19 0 36.5 7.5t31.5 20.5q10 10 19 24.5t15 28.5z" />
    <glyph glyph-name="Tilde" horiz-adv-x="565" 
d="M415 881q-7 -16 -18 -27q-16 -15 -42 -15q-11 0 -19 2.5t-19 7.5l-38 15q-15 6 -31.5 11.5t-35.5 5.5q-20 0 -39 -7.5t-33 -21.5q-3 -3 -15 -17t-20 -39l45 -27q3 8 8 15t10 12q16 15 38 15q20 0 38 -7l38 -16q23 -10 38 -14.5t33 -4.5q24 0 42 8.5t30 20.5
q11 11 20.5 26t14.5 30z" />
    <glyph glyph-name="cyrbreve" horiz-adv-x="426" 
d="M82 692q-3 -9 -4 -17t-1 -17q0 -21 8.5 -41.5t34.5 -35.5q20 -11 46 -15.5t47 -4.5t47 4.5t46 15.5q26 15 34.5 35.5t8.5 41.5q0 9 -1 17t-4 17l-70 -6q5 -17 0.5 -31t-15.5 -22q-9 -7 -22 -9.5t-24 -2.5t-24 2.5t-22 9.5q-11 8 -15.5 22t0.5 31z" />
    <glyph glyph-name="cyrBreve" horiz-adv-x="482" 
d="M101 893q-6 -15 -6 -32q0 -53 43 -80q23 -14 51.5 -18.5t51.5 -4.5t51.5 4.5t51.5 18.5q43 27 43 80q0 17 -6 32l-73 -7q6 -33 -19 -48q-17 -11 -48 -11t-48 11q-25 15 -19 48z" />
    <glyph glyph-name="space" unicode=" " horiz-adv-x="233" 
 />
    <glyph glyph-name="exclam" unicode="!" horiz-adv-x="310" 
d="M100 700l23 -544h64l23 544h-110zM204 0v98h-98v-98h98z" />
    <glyph glyph-name="quotedbl" unicode="&#x22;" horiz-adv-x="328" 
d="M115 502l20 198h-90l20 -198h50zM263 502l20 198h-90l20 -198h50z" />
    <glyph glyph-name="numbersign" unicode="#" horiz-adv-x="534" 
d="M338 0l35 193h110v72h-98l28 152h104v72h-93l36 194h-72l-35 -194h-117l35 194h-72l-34 -194h-111v-72h98l-27 -152h-108v-72h96l-35 -193h72l34 193h117l-35 -193h72zM313 265h-117l28 152h117z" />
    <glyph glyph-name="dollar" unicode="$" horiz-adv-x="599" 
d="M50 69q22 -19 50 -33.5t58 -24.5t60 -15.5t57 -6.5v-83h60v83q43 2 82 16.5t65 37.5q29 26 48 66t19 88q0 29 -11.5 59.5t-33.5 56.5q-26 31 -57.5 46.5t-62.5 26.5l-49 18v231q36 -4 69 -20q17 -8 32.5 -18.5t31.5 -24.5l49 61q-36 35 -86.5 57t-95.5 24v85h-60v-85
q-30 -2 -68 -12t-65 -31q-29 -23 -47.5 -62t-18.5 -90q0 -69 45 -117q23 -24 53.5 -42t62.5 -29l38 -13v-253q-23 2 -46 6.5t-49 14.5q-43 16 -81 48zM275 422q-9 3 -25.5 9.5t-30.5 16.5q-13 10 -27 30t-14 55q0 29 11 48.5t25 31.5q20 17 37 20t24 2v-213zM335 301
q19 -5 43 -15t39 -24q19 -17 24.5 -34.5t5.5 -37.5q0 -38 -11.5 -59t-21.5 -32q-2 -2 -8 -7t-16 -10.5t-23.5 -10.5t-31.5 -6v236z" />
    <glyph glyph-name="percent" unicode="%" horiz-adv-x="846" 
d="M669 700h-70l-426 -700h70zM217 710q-39 0 -69 -14t-48 -35q-23 -27 -33.5 -66t-10.5 -80q0 -42 10.5 -81t33.5 -65q18 -21 48 -35t69 -14t69 14t48 35q23 26 33.5 65t10.5 81q0 41 -10.5 80t-33.5 66q-18 21 -48 35t-69 14zM295 498q0 -26 -3.5 -52.5t-20.5 -46.5
q-20 -23 -54 -23t-54 23q-17 20 -20.5 46.5t-3.5 52.5v33q0 26 2.5 52t21.5 47q8 10 21.5 17t32.5 7t32.5 -7t21.5 -17q19 -21 21.5 -47t2.5 -52v-33zM718 167q0 -26 -3.5 -52.5t-20.5 -46.5q-20 -23 -54 -23t-54 23q-17 20 -20.5 46.5t-3.5 52.5v33q0 26 2.5 52t21.5 47
q8 10 21.5 17t32.5 7t32.5 -7t21.5 -17q19 -21 21.5 -47t2.5 -52v-33zM640 379q-39 0 -69 -14t-48 -35q-23 -27 -33.5 -66t-10.5 -80q0 -42 10.5 -81t33.5 -65q18 -21 48 -35t69 -14t69 14t48 35q23 26 33.5 65t10.5 81q0 41 -10.5 80t-33.5 66q-18 21 -48 35t-69 14z" />
    <glyph glyph-name="ampersand" unicode="&#x26;" horiz-adv-x="670" 
d="M512 296q1 -15 -0.5 -28t-4.5 -27q-2 -11 -5.5 -21.5t-8.5 -21.5l-152 182q26 10 59 28.5t53 41.5q13 14 25.5 39.5t12.5 63.5q0 26 -11 58.5t-43 60.5q-26 22 -55.5 31t-64.5 9q-26 0 -58.5 -5.5t-63.5 -26.5q-38 -26 -50 -59t-12 -60q0 -24 6.5 -44t17 -37t23 -31.5
t23.5 -27.5l19 -22q-23 -10 -49 -25t-43 -29q-25 -20 -47.5 -56.5t-22.5 -91.5q0 -48 18.5 -88t59.5 -72q36 -29 75.5 -39t87.5 -10q23 0 47.5 3t49 11t49.5 22.5t48 37.5l52 -62h108l-106 128q13 18 20.5 35.5t12.5 38.5q7 29 9 53t1 41h-80zM271 464q-7 9 -14 17t-13 18
t-9.5 22.5t-3.5 29.5q0 23 7 40t24 29q22 16 51 16q17 0 32.5 -5t27.5 -19q14 -15 17 -32t3 -32q0 -16 -4 -31t-17 -32q-12 -16 -31.5 -29.5t-45.5 -20.5zM446 128q-17 -21 -34.5 -33.5t-35 -19t-34 -9t-29.5 -2.5q-25 0 -53.5 7t-53.5 33q-23 24 -29.5 51.5t-6.5 44.5
q0 38 10.5 64.5t30.5 43.5q6 6 15 11.5t17 11t15 9l9 4.5z" />
    <glyph glyph-name="quotesingle" unicode="'" horiz-adv-x="180" 
d="M115 502l20 198h-90l20 -198h50z" />
    <glyph glyph-name="parenleft" unicode="(" horiz-adv-x="291" 
d="M199 700q-40 -59 -63 -110.5t-34 -87.5q-12 -39 -19.5 -76t-11.5 -69.5t-5 -58.5t-1 -43t1 -43.5t5 -58.5t11.5 -69.5t19.5 -76.5q17 -54 42.5 -104.5t54.5 -95.5h72q-8 18 -19 42.5t-21.5 51.5t-20 54t-15.5 49q-7 25 -13 56.5t-10 65t-6.5 66.5t-2.5 63q0 29 2.5 62.5
t6.5 66.5t10 64t13 57q6 22 15.5 49t20 53t21 50.5t19.5 42.5h-72z" />
    <glyph glyph-name="parenright" unicode=")" horiz-adv-x="291" 
d="M92 -193q29 45 54.5 95.5t42.5 104.5q12 39 19.5 76.5t11.5 69.5t5 58.5t1 43.5t-1 43t-5 58.5t-11.5 69.5t-19.5 76q-11 36 -34 87.5t-63 110.5h-72q9 -18 19.5 -42.5t21 -50.5t20 -53t15.5 -49q7 -26 13 -57t10 -64t6.5 -66.5t2.5 -62.5q0 -30 -2.5 -63t-6.5 -66.5
t-10 -65t-13 -56.5q-6 -22 -15.5 -49t-20 -54t-21.5 -51.5t-19 -42.5h72z" />
    <glyph glyph-name="asterisk" unicode="*" horiz-adv-x="427" 
d="M204 477l77 -106l57 42l-76 104l120 40l-22 65l-121 -38v128h-70v-128l-122 38l-22 -65l121 -40l-76 -104l56 -42z" />
    <glyph glyph-name="plus" unicode="+" horiz-adv-x="542" 
d="M235 540v-190h-190v-72h190v-190h72v190h190v72h-190v190h-72z" />
    <glyph glyph-name="comma" unicode="," horiz-adv-x="184" 
d="M139 -25v123h-94v-195z" />
    <glyph glyph-name="hyphenminus" unicode="-" horiz-adv-x="279" 
d="M30 356v-72h219v72h-219z" />
    <glyph glyph-name="period" unicode="." horiz-adv-x="188" 
d="M143 0v98h-98v-98h98z" />
    <glyph glyph-name="slash" unicode="/" horiz-adv-x="388" 
d="M432 724h-80l-397 -934h80z" />
    <glyph glyph-name="zero" unicode="0" 
d="M292 712q-107 0 -169 -89q-21 -29 -33 -63.5t-19 -70t-9 -71.5t-2 -68t2 -68t9 -71.5t19 -70t33 -63.5q62 -89 169 -89t169 89q21 29 33 63.5t19 70t9 71.5t2 68t-2 68t-9 71.5t-19 70t-33 63.5q-62 89 -169 89zM420 297q0 -67 -9 -116t-33 -78q-8 -9 -28.5 -24
t-57.5 -15t-57.5 15t-28.5 24q-24 29 -33 78t-9 116v106q0 67 9 116t33 78q8 9 28.5 24t57.5 15t57.5 -15t28.5 -24q24 -29 33 -78t9 -116v-106z" />
    <glyph glyph-name="one" unicode="1" 
d="M274 700l-98 -74v-99l98 74v-601h94v700h-94z" />
    <glyph glyph-name="two" unicode="2" 
d="M505 80h-325l165 187q27 31 54.5 60.5t49.5 61t36 66.5t14 76q0 44 -13.5 72.5t-28.5 45.5q-22 24 -61.5 43.5t-107.5 19.5q-27 0 -61 -5t-66 -23q-24 -14 -41.5 -34t-27.5 -45t-11 -53t7 -57h93q-2 9 -4 22t-1 28t7 30.5t19 29.5t33 22.5t46 8.5q28 0 48.5 -9t35.5 -25
q30 -31 30 -83q0 -41 -22.5 -80.5t-71.5 -95.5l-226 -263v-80h430v80z" />
    <glyph glyph-name="three" unicode="3" 
d="M228 326h47q34 0 59 -8.5t42 -22.5t28.5 -39.5t11.5 -60.5q0 -4 -0.5 -13t-3 -20.5t-7 -24t-13.5 -24.5q-11 -16 -25 -25.5t-28.5 -15t-28.5 -7t-26 -1.5q-23 0 -45 4t-46 15q-6 3 -28.5 15.5t-50.5 35.5l-49 -63q37 -33 82 -53q38 -18 74.5 -24t74.5 -6q51 0 91.5 17
t68.5 44q27 27 43.5 67.5t16.5 86.5q0 34 -11 65t-37 57q-11 11 -29.5 24t-45.5 21v3q47 17 75 56q13 17 21 42t8 58q0 28 -6.5 50.5t-16.5 39.5t-21.5 29t-21.5 20q-32 26 -70 35t-73 9q-37 0 -77 -7.5t-66 -21.5q-35 -20 -53.5 -52t-18.5 -69q0 -22 5 -40l85 -8
q-5 38 4 58.5t20 31.5q12 12 34 22t57 10q23 0 48.5 -7.5t45.5 -31.5q25 -29 25 -74q0 -33 -10 -53t-20 -30q-17 -17 -46 -27.5t-55 -10.5h-38v-76z" />
    <glyph glyph-name="four" unicode="4" 
d="M348 0h94v132h68v76h-68v194h-94v-194h-179l235 492h-95l-239 -504v-64h278v-132z" />
    <glyph glyph-name="five" unicode="5" 
d="M123 700l-23 -380h77q2 11 8 24.5t21 26.5q8 7 24 14t39 7q21 0 48.5 -11t46.5 -46q5 -8 13 -35t8 -83q0 -48 -8 -71.5t-13 -32.5q-5 -7 -12.5 -15.5t-19.5 -16t-28 -12.5t-38 -5q-37 0 -64.5 14.5t-50.5 37.5l-53 -56q40 -41 79.5 -56.5t90.5 -15.5q65 0 104.5 20
t61.5 46q27 32 41 76.5t14 97.5q0 97 -43 160q-30 45 -70.5 62.5t-75.5 17.5q-21 0 -51 -7t-53 -31l13 190h240v80h-326z" />
    <glyph glyph-name="six" unicode="6" 
d="M485 622q-26 43 -68.5 66.5t-97.5 23.5q-37 0 -66 -9t-52 -23.5t-39.5 -32.5t-27.5 -36q-21 -33 -32.5 -75t-17 -84t-7 -79t-1.5 -61q0 -56 5.5 -97.5t14 -71t18.5 -48.5t18 -31q23 -32 62 -54t101 -22q44 0 84.5 14.5t72.5 52.5q27 32 39.5 75.5t12.5 83.5
q0 52 -14.5 90.5t-35.5 62.5q-22 25 -57 44t-81 19q-38 0 -75 -13.5t-66 -48.5q0 91 12.5 145.5t39.5 83.5q13 14 35.5 26.5t55.5 12.5q24 0 41.5 -6.5t29.5 -16.5t20 -20.5t12 -17.5zM292 356q29 0 51 -12t35 -30q14 -20 20 -49.5t6 -55.5t-6 -55t-20 -49q-15 -21 -39 -32
t-47 -11t-47 11t-39 32q-14 20 -20 49t-6 55t6 55t20 49q13 17 35.5 30t50.5 13z" />
    <glyph glyph-name="seven" unicode="7" 
d="M496 700h-408v-80h305l-252 -620h104l251 638v62z" />
    <glyph glyph-name="eight" unicode="8" 
d="M197 371q-23 -11 -44.5 -25.5t-35.5 -28.5q-19 -19 -36 -50.5t-17 -78.5q0 -48 17 -83t41 -58q35 -34 78 -46.5t91 -12.5q66 0 106 18.5t63 39.5q23 22 41.5 57t18.5 85q0 34 -10.5 65.5t-36.5 58.5q-17 18 -41 33.5t-45 25.5q17 8 34.5 20.5t31.5 29.5q20 24 29 54t9 59
q0 38 -16 73t-45 60q-26 22 -61 33t-77 11q-53 0 -87 -15.5t-52 -31.5q-9 -7 -19.5 -18.5t-19.5 -28t-15 -37.5t-6 -48q0 -36 10.5 -62.5t26.5 -45.5q13 -15 31.5 -29t35.5 -24zM281 409q-17 8 -36.5 21.5t-30.5 26.5q-13 16 -17 33t-4 31q0 19 4 41.5t24 42.5q13 14 31 22
t40 8q28 0 45 -10t25 -18q20 -20 24.5 -43.5t4.5 -42.5q0 -13 -3 -29t-13 -32.5t-28.5 -32t-49.5 -25.5zM308 331q18 -8 35.5 -17t34.5 -24q42 -39 42 -99q0 -27 -7 -50t-26 -41q-20 -20 -45 -28t-50 -8q-32 0 -57.5 11t-40.5 28q-13 14 -21.5 37t-8.5 51q0 25 10 54.5
t40 55.5q16 14 35 23.5t39 14.5z" />
    <glyph glyph-name="nine" unicode="9" 
d="M95 78q26 -43 68.5 -66.5t97.5 -23.5q37 0 66 9t52 23.5t39.5 32.5t27.5 36q21 33 32.5 74.5t17 83.5t7 79.5t1.5 61.5q0 56 -5.5 97.5t-14 71t-18.5 48.5t-18 31q-23 32 -62 54t-101 22q-44 0 -84.5 -14.5t-72.5 -52.5q-27 -32 -39.5 -75.5t-12.5 -83.5
q0 -52 14.5 -90.5t35.5 -62.5q22 -25 57 -44t81 -19q38 0 75 13.5t66 48.5q0 -91 -12.5 -145.5t-39.5 -83.5q-13 -14 -35.5 -26.5t-55.5 -12.5q-24 0 -41.5 6.5t-29.5 16.5t-20 20t-12 18zM288 344q-29 0 -51 12t-35 30q-14 20 -20 49.5t-6 55.5t6 55t20 49q15 21 39 32
t47 11t47 -11t39 -32q14 -20 20 -49t6 -55t-6 -55t-20 -49q-13 -17 -35.5 -30t-50.5 -13z" />
    <glyph glyph-name="colon" unicode=":" horiz-adv-x="198" 
d="M148 336v98h-98v-98h98zM148 0v98h-98v-98h98z" />
    <glyph glyph-name="semicolon" unicode=";" horiz-adv-x="198" 
d="M148 -25v123h-94v-195zM148 336v98h-98v-98h98z" />
    <glyph glyph-name="less" unicode="&#x3c;" horiz-adv-x="531" 
d="M147 292l334 134v76l-436 -180v-60l436 -180v76z" />
    <glyph glyph-name="equal" unicode="=" horiz-adv-x="542" 
d="M45 422v-72h452v72h-452zM45 278v-72h452v72h-452z" />
    <glyph glyph-name="greater" unicode="&#x3e;" horiz-adv-x="531" 
d="M379 292l-334 -134v-76l436 180v60l-436 180v-76z" />
    <glyph glyph-name="question" unicode="?" horiz-adv-x="516" 
d="M193 173h90v41q0 26 4.5 42.5t20.5 36.5q11 14 29 30.5t37.5 34.5t37.5 37t29 38q15 27 21 57t3 60t-15 57.5t-32 48.5q-35 35 -77.5 45.5t-82.5 10.5q-27 0 -61 -5t-66 -23q-21 -12 -38 -30t-28 -41t-14 -50t5 -56h86q-2 15 0 37t13 42.5t33.5 35t62.5 14.5
q21 0 43.5 -7t38.5 -21q14 -12 23.5 -33t9.5 -48q0 -23 -6.5 -44.5t-23.5 -42.5q-20 -25 -31.5 -37.5t-18.5 -18t-11 -7t-8.5 -5t-11.5 -11t-20 -24.5q-23 -32 -32.5 -62t-9.5 -67v-35zM287 0v98h-98v-98h98z" />
    <glyph glyph-name="at" unicode="@" horiz-adv-x="799" 
d="M598 93q-45 -23 -85 -30.5t-77 -7.5q-46 0 -100 14t-107 59q-48 42 -70.5 92.5t-22.5 116.5q0 49 9.5 88.5t24.5 69.5t33 52t36 37q34 29 79 47.5t104 18.5q68 0 124.5 -20.5t94.5 -60.5q38 -39 50.5 -82t12.5 -91q0 -36 -7 -63.5t-26 -56.5q-12 -19 -33 -39t-51 -20
q-29 0 -34 19.5t0 49.5l40 215q-55 25 -87.5 32.5t-58.5 7.5q-31 0 -69.5 -10t-74.5 -46q-20 -20 -31 -40.5t-19 -39.5q-9 -23 -15.5 -52.5t-6.5 -62.5q0 -26 7.5 -47t20.5 -35q15 -18 39 -28.5t47 -10.5h12q9 0 21 2.5t27 7.5t31 15q11 7 24 17.5t26 26.5l3 -1
q0 -16 6 -29.5t15 -21.5q11 -9 27 -13t34 -4q28 0 51 8t42 20.5t33.5 28.5t24.5 31q20 29 31 68.5t11 87.5q0 69 -26 119t-58 82q-43 44 -108.5 70t-151.5 26q-48 0 -87.5 -9.5t-71 -24.5t-55.5 -33t-40 -34q-52 -51 -79 -119t-27 -140q0 -86 31.5 -150t74.5 -106
q51 -51 116.5 -77.5t137.5 -26.5q46 0 99 12t107 43zM472 277q-8 -9 -18.5 -19t-20.5 -18q-30 -22 -63 -22q-23 0 -39 18q-11 12 -13.5 26.5t-2.5 28.5q0 19 3 41.5t8.5 44.5t14 42t20.5 34q20 25 45 33t45 8q18 0 33 -5.5t30 -14.5z" />
    <glyph glyph-name="A" unicode="A" horiz-adv-x="620" 
d="M351 700h-82l-259 -700h93l72 194h250l72 -194h113zM199 272l75 204q7 18 13 38.5t11 49.5h4q5 -32 10.5 -51t10.5 -32l78 -209h-202z" />
    <glyph glyph-name="B" unicode="B" horiz-adv-x="633" 
d="M95 700v-700h224q19 0 41.5 1.5t46.5 7t47.5 15.5t44.5 27q34 28 51.5 68t17.5 82q0 23 -7.5 52.5t-30.5 58.5q-11 13 -30 29t-51 27v4q14 6 32.5 18.5t35.5 36.5q29 43 29 101q0 42 -17 74.5t-43 52.5q-20 16 -44 25t-48 13.5t-45 5.5t-35 1h-219zM193 620h132
q24 0 47.5 -6t38.5 -19q14 -11 22.5 -32.5t8.5 -50.5q0 -30 -11 -49t-23 -30q-23 -20 -49.5 -24t-46.5 -4h-119v215zM193 325h129q7 0 20 -0.5t27.5 -4t29.5 -10.5t28 -19q12 -12 18.5 -25.5t10 -26t4 -23.5t0.5 -17q0 -14 -4.5 -38.5t-23.5 -45.5q-22 -24 -48.5 -29.5
t-54.5 -5.5h-136v245z" />
    <glyph glyph-name="C" unicode="C" horiz-adv-x="621" 
d="M564 502q5 21 5.5 44.5t-6.5 46t-21.5 43t-39.5 36.5q-35 22 -79.5 31t-86.5 9q-70 0 -118.5 -25t-81.5 -64q-24 -29 -39 -63.5t-23.5 -70.5t-11 -71.5t-2.5 -67.5q0 -33 3 -68.5t12 -70.5t24.5 -69t40.5 -64q45 -52 101 -71t119 -19q42 0 73 7t64 21q43 17 74 37l-37 69
q-21 -13 -37.5 -20.5t-24.5 -10.5q-13 -5 -41.5 -14t-62.5 -9q-45 0 -82 14.5t-60 39.5q-31 34 -44.5 90t-13.5 116v55q0 52 6 88t14 60t16.5 37t13.5 19q18 20 49.5 34.5t68.5 14.5q28 0 57 -9t49 -28t25 -39t5 -40v-24z" />
    <glyph glyph-name="D" unicode="D" horiz-adv-x="683" 
d="M95 700v-700h188q89 0 152 28t99 64q28 28 45.5 60t27.5 65.5t13 67t3 65.5q0 31 -3 65t-13 67.5t-27.5 65.5t-45.5 60q-36 36 -99 64t-152 28h-188zM193 620h90q69 0 111 -19t65 -42q19 -20 30.5 -43.5t17 -47t7 -46.5t1.5 -41v-62q0 -18 -1.5 -40t-7 -46t-17 -47.5
t-30.5 -43.5q-22 -23 -64.5 -42.5t-111.5 -19.5h-90v540z" />
    <glyph glyph-name="E" unicode="E" horiz-adv-x="528" 
d="M458 700h-363v-700h398v80h-300v249h265v80h-265v211h265v80z" />
    <glyph glyph-name="F" unicode="F" horiz-adv-x="493" 
d="M458 700h-363v-700h98v317h258v80h-258v223h265v80z" />
    <glyph glyph-name="G" unicode="G" horiz-adv-x="671" 
d="M367 266h126v-169q-16 -9 -45 -19t-74 -10q-42 0 -80.5 13.5t-64.5 40.5q-28 29 -44.5 78.5t-16.5 120.5v62q0 19 1.5 46t7 55.5t16.5 56t30 47.5q20 22 53 35t75 13q35 0 62.5 -10t44.5 -27q20 -18 25 -36t5 -38v-24l93 6q7 32 3.5 57.5t-12.5 45.5t-22.5 34t-26.5 24
q-33 23 -78 33.5t-94 10.5q-25 0 -52.5 -4t-55 -13.5t-54.5 -26.5t-51 -44q-26 -29 -41 -63.5t-23.5 -71t-11 -72.5t-2.5 -67q0 -66 12 -126.5t50 -114.5q16 -24 38.5 -46t52.5 -39t68 -27.5t85 -10.5q48 0 86.5 9t73.5 24q15 7 33.5 15.5t31.5 14.5v297h-224v-80z" />
    <glyph glyph-name="H" unicode="H" horiz-adv-x="720" 
d="M625 700h-98v-295h-334v295h-98v-700h98v325h334v-325h98v700z" />
    <glyph glyph-name="I" unicode="I" horiz-adv-x="288" 
d="M95 0h98v700h-98v-700z" />
    <glyph glyph-name="J" unicode="J" horiz-adv-x="449" 
d="M271 700v-490q0 -9 -0.5 -21t-3.5 -26t-9 -28.5t-16 -26.5q-14 -18 -38.5 -29t-57.5 -11q-34 0 -59.5 13t-42.5 30l-49 -63q7 -6 23.5 -18.5t39.5 -23.5q26 -11 49 -14.5t45 -3.5q42 0 85 11.5t77 49.5q18 20 29 43t16.5 46.5t7.5 45.5t2 40v476h-98z" />
    <glyph glyph-name="K" unicode="K" horiz-adv-x="633" 
d="M193 700h-98v-700h98v194l115 146l196 -340h114l-241 419l211 281h-110l-285 -382v382z" />
    <glyph glyph-name="L" unicode="L" horiz-adv-x="504" 
d="M489 0v80h-296v620h-98v-700h394z" />
    <glyph glyph-name="M" unicode="M" horiz-adv-x="785" 
d="M95 0h90v546l183 -371h41l183 371v-546h98v700h-111l-182 -379l-192 379h-110v-700z" />
    <glyph glyph-name="N" unicode="N" horiz-adv-x="720" 
d="M95 700v-700h90v528l345 -528h95v700h-90v-528l-345 528h-95z" />
    <glyph glyph-name="O" unicode="O" horiz-adv-x="694" 
d="M347 712q-42 0 -75.5 -8.5t-59.5 -21.5t-44.5 -29t-30.5 -30q-25 -29 -40 -63.5t-23.5 -70.5t-11 -71.5t-2.5 -67.5q0 -33 2.5 -69t11 -72t23.5 -70t40 -63q33 -38 84 -63t126 -25t126 25t84 63q25 29 40 63t23.5 70t11 72t2.5 69q0 32 -2.5 67.5t-11 71.5t-23.5 70.5
t-40 63.5q-12 14 -30.5 30t-44.5 29t-59.5 21.5t-75.5 8.5zM526 312q0 -19 -1.5 -45t-6.5 -53t-15 -53t-28 -46q-16 -18 -46 -34.5t-82 -16.5t-82 16.5t-46 34.5q-18 20 -28 46t-15 53t-6.5 53t-1.5 45v76q0 19 1.5 45t6.5 53t15 53t28 46q16 18 46 34.5t82 16.5t82 -16.5
t46 -34.5q18 -20 28 -46t15 -53t6.5 -53t1.5 -45v-76z" />
    <glyph glyph-name="P" unicode="P" horiz-adv-x="620" 
d="M95 700v-700h98v303h147q53 0 99 17t76 45q29 27 44.5 65t15.5 80q0 37 -17 75.5t-55 67.5q-40 30 -86.5 38.5t-90.5 8.5h-231zM193 620h145q26 0 51.5 -6t42.5 -20q25 -19 31.5 -44t6.5 -47q0 -20 -6.5 -43.5t-26.5 -43.5q-17 -16 -43 -24.5t-56 -8.5h-145v237z" />
    <glyph glyph-name="Q" unicode="Q" horiz-adv-x="694" 
d="M298 -36q0 -29 9 -62.5t42 -59.5q22 -17 51.5 -24t58.5 -7q26 0 50 6t50 20l-29 54l-9 -4q-8 -4 -21 -7t-28 -3q-26 0 -41 9.5t-22 20.5q-9 14 -11 31.5t-2 29.5v23q55 7 95.5 31.5t65.5 53.5t40 63.5t23.5 70.5t11 72t2.5 68t-2.5 67.5t-11 71.5t-23.5 70.5t-40 63.5
q-12 14 -30.5 30t-44.5 29t-59.5 21.5t-75.5 8.5t-75.5 -8.5t-59.5 -21.5t-44.5 -29t-30.5 -30q-25 -29 -40 -63.5t-23.5 -70.5t-11 -71.5t-2.5 -67.5t2.5 -68t11 -72t23.5 -70.5t40 -63.5t65.5 -53.5t95.5 -32.5v-26zM526 312q0 -19 -1.5 -45t-6.5 -53t-15 -53t-28 -46
q-16 -18 -46 -34.5t-82 -16.5t-82 16.5t-46 34.5q-18 20 -28 46t-15 53t-6.5 53t-1.5 45v76q0 19 1.5 45t6.5 53t15 53t28 46q16 18 46 34.5t82 16.5t82 -16.5t46 -34.5q18 -20 28 -46t15 -53t6.5 -53t1.5 -45v-76z" />
    <glyph glyph-name="R" unicode="R" horiz-adv-x="672" 
d="M95 700v-700h98v315h99q22 0 45 -3.5t42 -20.5q10 -9 19 -26.5t24 -52.5l90 -212h110l-97 225q-14 32 -24.5 51t-21.5 32q-22 25 -56 36v4q22 5 49 15.5t48 27.5q24 20 41 52.5t17 71.5q0 30 -11 65t-44 65q-22 20 -46 31t-49 16.5t-51 6.5t-51 1h-231zM193 620h143
q23 0 49 -4.5t47 -20.5q18 -14 28 -35.5t10 -45.5q0 -23 -9.5 -47t-27.5 -40q-17 -14 -45.5 -23t-55.5 -9h-139v225z" />
    <glyph glyph-name="S" unicode="S" horiz-adv-x="589" 
d="M50 69q47 -38 108.5 -59.5t122.5 -21.5q60 0 107.5 15.5t81 44.5t51.5 69t18 90q0 77 -41.5 120.5t-119.5 64.5l-70 19q-30 8 -52.5 17.5t-37.5 23t-22.5 31.5t-7.5 44q0 17 5 36.5t18.5 35.5t38.5 26.5t65 10.5q8 0 23.5 -1.5t36 -7.5t44.5 -19t49 -36l49 61
q-45 43 -99 63t-111 20q-53 0 -94.5 -16t-69.5 -43.5t-42.5 -65.5t-14.5 -82q0 -52 18.5 -85.5t44 -53.5t53 -30t46.5 -15l55 -15q31 -9 55.5 -18t41.5 -22t25.5 -32.5t8.5 -47.5q0 -24 -8 -46.5t-25 -40.5t-45 -28.5t-68 -10.5q-45 0 -94.5 16t-94.5 54z" />
    <glyph glyph-name="T" unicode="T" horiz-adv-x="548" 
d="M323 0v620h210v80h-518v-80h210v-620h98z" />
    <glyph glyph-name="U" unicode="U" horiz-adv-x="694" 
d="M609 700h-98v-441q0 -14 -1 -31t-4 -34.5t-9 -34.5t-17 -32q-16 -22 -48.5 -40.5t-84.5 -18.5q-51 0 -83 18.5t-49 41.5q-11 15 -17 32t-9.5 34.5t-4.5 34t-1 30.5v441h-98v-441q0 -62 19.5 -115.5t51.5 -85.5q30 -30 79 -50t112 -20t112 20t79 50q32 32 51.5 85.5
t19.5 115.5v441z" />
    <glyph glyph-name="V" unicode="V" horiz-adv-x="600" 
d="M10 700l249 -700h82l249 700h-93l-133 -389q-6 -18 -11.5 -34t-11 -33.5t-11.5 -37.5t-13 -46h-8q-12 42 -24.5 80t-24.5 72l-138 388h-112z" />
    <glyph glyph-name="W" unicode="W" horiz-adv-x="824" 
d="M15 700l184 -700h80l131 425h4l131 -425h80l184 700h-90l-97 -378q-11 -40 -18 -74t-15 -71h-7q-7 27 -15.5 58t-17.5 61l-90 293h-80l-89 -288q-4 -12 -8 -28.5t-8.5 -34t-8 -33.5t-5.5 -28h-7q-3 14 -7 32.5t-8.5 39t-9.5 40t-9 35.5l-99 376h-105z" />
    <glyph glyph-name="X" unicode="X" horiz-adv-x="609" 
d="M36 700l206 -329l-232 -371h108l132 220q3 6 6.5 12t9 15.5t13 23.5t18.5 35q11 -23 20 -40.5t23 -38.5l141 -227h118l-234 378l198 322h-100l-105 -170q-11 -17 -24 -43t-24 -49q-14 27 -25.5 47.5t-26.5 45.5l-104 169h-118z" />
    <glyph glyph-name="Y" unicode="Y" horiz-adv-x="553" 
d="M323 0v298l230 402h-92l-140 -246q-7 -12 -17.5 -32.5t-19.5 -42.5q-9 23 -19.5 42t-24.5 45l-132 234h-113l230 -402v-298h98z" />
    <glyph glyph-name="Z" unicode="Z" horiz-adv-x="533" 
d="M485 700h-429v-80h321l-342 -540v-80h463v80h-356l343 540v80z" />
    <glyph glyph-name="bracketleft" unicode="[" horiz-adv-x="284" 
d="M264 700h-184v-893h183v70h-91v753h92v70z" />
    <glyph glyph-name="backslash" unicode="\" horiz-adv-x="461" 
d="M28 724l397 -934h80l-397 934h-80z" />
    <glyph glyph-name="bracketright" unicode="]" horiz-adv-x="284" 
d="M20 700v-70h92v-753h-91v-70h183v893h-184z" />
    <glyph glyph-name="asciicircum" unicode="^" horiz-adv-x="452" 
d="M226 594l114 -287h77l-161 393h-59l-162 -393h76z" />
    <glyph glyph-name="underscore" unicode="_" horiz-adv-x="650" 
d="M0 -218h650v65h-650v-65z" />
    <glyph glyph-name="grave" unicode="`" horiz-adv-x="471" 
d="M211 700h-111l143 -153h60z" />
    <glyph glyph-name="b" unicode="b" horiz-adv-x="531" 
d="M165 740h-88v-699q38 -23 84 -37t99 -14q19 0 41.5 2.5t45 11t44.5 23.5t41 40q31 41 40 89t9 90q0 20 -2 45.5t-9 53t-21 54t-39 48.5q-26 23 -61.5 36t-72.5 13q-17 0 -34 -2.5t-30 -5.5q-11 -2 -23.5 -6.5t-23.5 -9.5v268zM165 403q9 5 19.5 10t23.5 10q8 3 21.5 6
t29.5 3q26 0 51 -8.5t42 -25.5q12 -13 18 -28.5t9 -32t3.5 -33.5t0.5 -33v-42q0 -62 -8.5 -91.5t-18.5 -42.5q-11 -14 -33 -27.5t-60 -13.5q-14 0 -29.5 3t-27.5 7q-10 3 -21 8.5t-20 10.5v320z" />
    <glyph glyph-name="c" unicode="c" horiz-adv-x="484" 
d="M416 95q-12 -6 -25.5 -12t-30.5 -11q-20 -6 -38 -9t-38 -3q-6 0 -18 1t-25.5 4.5t-28 10t-26.5 17.5q-27 26 -32.5 58t-5.5 63v65q0 14 0.5 31.5t4.5 36t13.5 36t28.5 30.5q28 19 70 19q49 0 73 -24q15 -15 17 -35.5t0 -41.5l81 7q11 39 -2.5 75.5t-51.5 56.5
q-23 13 -53.5 19.5t-55.5 6.5q-36 0 -74 -10t-66 -31q-27 -20 -43.5 -47t-25 -56t-11.5 -58t-3 -54q0 -16 2 -40.5t10 -53t23 -57t42 -51.5q35 -30 73.5 -39t70.5 -9q34 0 61 5t53 15q16 6 32 14t27 14z" />
    <glyph glyph-name="d" unicode="d" horiz-adv-x="534" 
d="M366 740v-270q-11 5 -21 9t-21 7q-17 5 -35.5 7.5t-34.5 2.5q-35 0 -70 -13t-62 -37q-24 -22 -38.5 -49t-22 -54t-9.5 -53t-2 -47q0 -18 1.5 -41t7.5 -48t16.5 -51t28.5 -48q51 -65 142 -65q32 0 57.5 8t42.5 19q25 16 43 44l25 -67h50l-10 110v636h-88zM366 216
q0 -28 -4 -63t-23 -60q-13 -17 -34.5 -28t-48.5 -11q-25 0 -44 9.5t-32 24.5q-11 13 -17.5 29.5t-9.5 34t-4 35t-1 32.5v43q0 35 4.5 69t29.5 63q14 17 36 27.5t53 10.5q17 0 29.5 -3t27.5 -8q10 -4 18.5 -7.5t19.5 -10.5v-187z" />
    <glyph glyph-name="e" unicode="e" horiz-adv-x="492" 
d="M148 222h300v22q0 59 -7.5 107t-43.5 87q-24 26 -60 42t-83 16q-51 0 -88 -19t-60 -45q-19 -22 -30 -46t-17 -48t-7.5 -46.5t-1.5 -40.5q0 -21 2 -45.5t8 -50t17.5 -50t30.5 -45.5q25 -28 67.5 -49t103.5 -21q27 0 55.5 4.5t58.5 15.5q16 6 32 14t27 14l-28 57
q-12 -6 -25.5 -12t-30.5 -11q-20 -6 -37.5 -9t-38.5 -3q-35 0 -64 10.5t-46 29.5q-12 13 -23 39t-11 70v13zM148 286v11q0 42 10.5 66.5t21.5 36.5q10 11 27.5 21.5t45.5 10.5q20 0 37.5 -5t31.5 -19q24 -23 28 -49.5t4 -52.5v-20h-206z" />
    <glyph glyph-name="f" unicode="f" horiz-adv-x="321" 
d="M312 420v66h-108v65q0 24 2.5 50t14.5 44q6 8 21 19.5t42 11.5q12 0 24.5 -3t22.5 -7l10 -4l25 59l-13 5q-9 4 -27.5 9t-45.5 5q-36 0 -64.5 -11t-48.5 -29q-17 -16 -27 -34.5t-15.5 -37.5t-7 -37.5t-1.5 -33.5v-71h-86v-66h86v-420h88v420h108z" />
    <glyph glyph-name="g" unicode="g" horiz-adv-x="524" 
d="M454 496h-27l-29 -50q-14 11 -27 18.5t-30 13.5q-22 8 -43.5 13t-47.5 5q-51 0 -91 -19t-69 -61q-28 -42 -34 -86t-6 -87q0 -53 11 -106t52 -95q27 -28 59.5 -40t68.5 -12q21 0 39.5 2.5t37.5 8.5q13 4 24 9t24 13v-50q0 -63 -31 -92t-91 -29q-17 0 -34.5 2.5t-31.5 7.5
q-11 4 -22 8.5t-17 7.5l-31 -63q17 -8 30.5 -13t20.5 -7q42 -13 94 -13q56 0 94.5 16t60.5 40q17 18 26.5 39.5t14 43.5t5 43t0.5 39v493zM366 86q-17 -11 -38 -19q-4 -2 -21 -7.5t-39 -5.5q-38 0 -60 12.5t-33 28.5q-9 13 -14.5 30t-8.5 35t-3.5 35.5t-0.5 33.5v32
q0 16 0.5 34.5t3.5 36.5t9 34.5t17 30.5q30 35 89 35q32 0 64 -19q12 -7 20 -14.5t15 -15.5v-297z" />
    <glyph glyph-name="h" unicode="h" horiz-adv-x="538" 
d="M165 0v382q12 10 26 19t30 16q14 6 29.5 10.5t33.5 4.5q21 0 39 -6t30 -18q17 -17 20.5 -37.5t3.5 -39.5v-331h88v329q0 42 -11.5 72t-28.5 48q-21 23 -53 35t-67 12q-20 0 -40.5 -4t-37.5 -10q-31 -11 -62 -34v292h-88v-740h88z" />
    <glyph glyph-name="i" unicode="i" horiz-adv-x="243" 
d="M35 486v-70h56v-416h88v486h-144zM73 646q0 -25 17.5 -42.5t42.5 -17.5t42.5 17.5t17.5 42.5t-17.5 42.5t-42.5 17.5t-42.5 -17.5t-17.5 -42.5z" />
    <glyph glyph-name="j" unicode="j" horiz-adv-x="243" 
d="M35 486v-70h56v-634h88v704h-144zM73 646q0 -25 17.5 -42.5t42.5 -17.5t42.5 17.5t17.5 42.5t-17.5 42.5t-42.5 17.5t-42.5 -17.5t-17.5 -42.5z" />
    <glyph glyph-name="k" unicode="k" horiz-adv-x="500" 
d="M165 740h-88v-740h88v165l75 80l134 -245h106l-175 304l168 182h-101l-207 -230v484z" />
    <glyph glyph-name="l" unicode="l" horiz-adv-x="242" 
d="M77 740v-740h88v740h-88z" />
    <glyph glyph-name="m" unicode="m" horiz-adv-x="784" 
d="M180 0v374q7 10 16.5 19.5t20.5 17.5q13 9 29 15t32 6t32 -6t27 -17q16 -16 19 -35t3 -39v-335h88v374q7 10 16.5 19.5t20.5 17.5q13 9 29 15t32 6t32 -6t27 -17q16 -16 19 -35t3 -39v-335h88v327q0 10 -1 25t-4 32t-9.5 34.5t-18.5 31.5q-14 17 -41 31.5t-72 14.5
q-10 0 -26 -1.5t-35 -8t-39.5 -20t-40.5 -36.5q-10 22 -27 37q-18 16 -40 22.5t-50 6.5q-17 0 -35 -3t-37 -12q-16 -8 -31.5 -19t-27.5 -23v47h-144v-70h57v-416h88z" />
    <glyph glyph-name="n" unicode="n" horiz-adv-x="550" 
d="M180 0v382q26 24 57 37t62 13q16 0 32.5 -4.5t30 -16t22 -31t8.5 -49.5v-331h88v324q0 29 -7 62.5t-33 62.5t-57 38t-63 9q-22 0 -39 -3t-40 -12q-34 -13 -68 -38v43h-138v-70h57v-416h88z" />
    <glyph glyph-name="o" unicode="o" horiz-adv-x="524" 
d="M262 496q-54 0 -93.5 -18.5t-63.5 -44.5q-19 -20 -30.5 -44t-18 -49t-9 -50t-2.5 -47t2.5 -47t9 -50t18 -49t30.5 -44q24 -26 63.5 -44.5t93.5 -18.5t93.5 18.5t63.5 44.5q19 20 30.5 44t18 49t9 50t2.5 47t-2.5 47t-9 50t-18 49t-30.5 44q-24 26 -63.5 44.5t-93.5 18.5z
M381 221q0 -35 -4.5 -70.5t-30.5 -63.5q-11 -11 -31 -22t-53 -11t-53 11t-31 22q-26 28 -30.5 63.5t-4.5 70.5v44q0 35 4.5 70.5t30.5 63.5q11 11 31 22t53 11t53 -11t31 -22q26 -28 30.5 -63.5t4.5 -70.5v-44z" />
    <glyph glyph-name="p" unicode="p" horiz-adv-x="531" 
d="M165 -218v239q14 -8 24.5 -12t24.5 -8q17 -5 34.5 -8t41.5 -3q36 0 68.5 12t59.5 40q41 42 52 95t11 106q0 38 -6 86.5t-35 91.5q-28 42 -66 58.5t-74 16.5q-20 0 -42.5 -5t-40.5 -13q-17 -8 -32.5 -19.5t-27.5 -22.5v50h-80v-704h88zM165 376q8 10 18 19t23 17
q20 12 37 16t31 4q22 0 43.5 -9.5t35.5 -25.5q11 -13 17 -30t9 -35t3.5 -36.5t0.5 -34.5v-32q0 -16 -0.5 -33.5t-3.5 -35.5t-8.5 -35t-14.5 -30q-11 -16 -33 -28.5t-60 -12.5q-22 0 -39 5.5t-21 7.5q-21 8 -38 19v290z" />
    <glyph glyph-name="q" unicode="q" horiz-adv-x="531" 
d="M366 -218h88v714h-27l-29 -50q-14 11 -27 18.5t-30 13.5q-22 8 -43.5 13t-47.5 5q-51 0 -91 -19t-69 -61q-28 -42 -34 -86t-6 -87q0 -53 11 -106t52 -95q27 -28 59.5 -40t68.5 -12q24 0 41.5 3t34.5 8q14 4 24.5 8t24.5 12v-239zM366 86q-17 -11 -38 -19q-4 -2 -21 -7.5
t-39 -5.5q-38 0 -60 12.5t-33 28.5q-9 13 -14.5 30t-8.5 35t-3.5 35.5t-0.5 33.5v32q0 16 0.5 34.5t3.5 36.5t9 34.5t17 30.5q30 35 89 35q32 0 64 -19q12 -7 20 -14.5t15 -15.5v-297z" />
    <glyph glyph-name="r" unicode="r" horiz-adv-x="382" 
d="M77 486v-486h88v279q0 24 5 53.5t27 52.5q10 11 28 21t44 10q25 0 42 -12q5 -4 9.5 -9.5t7.5 -13.5l64 47q-3 19 -11.5 30.5t-16.5 17.5q-11 8 -28 14t-41 6q-21 0 -38 -5t-34 -14q-16 -8 -33 -23t-31 -42v74h-82z" />
    <glyph glyph-name="s" unicode="s" horiz-adv-x="430" 
d="M380 446q-28 23 -61 34q-42 16 -94 16q-20 0 -52.5 -4.5t-61.5 -25.5q-25 -18 -40 -48t-15 -66q0 -17 5 -38.5t15 -37.5q19 -31 50 -43.5t60 -18.5l44 -9q15 -3 30.5 -7t28.5 -15t17 -23.5t4 -26.5q0 -19 -6.5 -32.5t-16.5 -22.5q-17 -16 -36.5 -20t-39.5 -4
q-25 0 -46.5 5t-41.5 14q-11 5 -25 13.5t-26 16.5l-39 -52q37 -30 79.5 -45.5t98.5 -15.5q57 0 92 16.5t54 34.5q22 21 32.5 46t10.5 57q0 26 -6.5 48.5t-25.5 42.5q-22 23 -48.5 31.5t-52.5 13.5l-35 7q-20 4 -37 8.5t-31 18.5q-11 11 -14.5 23.5t-3.5 22.5q0 26 9.5 39.5
t17.5 18.5q13 9 26.5 11.5t26.5 2.5q20 0 37.5 -3.5t33.5 -8.5q15 -5 27 -12t22 -15z" />
    <glyph glyph-name="t" unicode="t" horiz-adv-x="327" 
d="M30 486v-66h86v-420h88v420h108v66h-108v171h-88v-171h-86z" />
    <glyph glyph-name="u" unicode="u" horiz-adv-x="535" 
d="M370 486v-374q-9 -10 -20 -19.5t-22 -16.5q-18 -11 -39 -16.5t-38 -5.5q-20 0 -39 6.5t-30 18.5q-11 11 -17.5 29t-6.5 38v340h-88v-327q0 -11 1 -26t5 -31.5t12 -33.5t23 -32q21 -21 54.5 -33.5t71.5 -12.5q24 0 44.5 5t40.5 15q15 8 29.5 18.5t28.5 24.5v-53h78v486
h-88z" />
    <glyph glyph-name="v" unicode="v" horiz-adv-x="463" 
d="M103 486h-93l175 -486h93l175 486h-77l-97 -270q-4 -11 -9.5 -28l-11 -34t-9.5 -32t-6 -22h-5q-7 22 -17 54t-21 62z" />
    <glyph glyph-name="w" unicode="w" horiz-adv-x="691" 
d="M326 486l-78 -251q-8 -24 -15.5 -52.5t-15.5 -60.5h-5q-5 25 -12.5 53.5t-13.5 48.5l-81 262h-90l150 -486h75l104 324h3l104 -324h75l150 486h-75l-76 -247q-17 -56 -22.5 -82t-6.5 -35h-5q-7 35 -14.5 58.5t-14.5 46.5l-81 259h-55z" />
    <glyph glyph-name="x" unicode="x" horiz-adv-x="490" 
d="M462 486h-85l-86 -126q-8 -11 -17 -26.5t-16 -28.5q-8 17 -15 29t-14 22t-13.5 19t-13.5 20l-62 91h-108l158 -230l-180 -256h90l98 141q10 14 21 31.5t20 33.5q11 -23 20 -38t20 -32l93 -136h108l-176 256z" />
    <glyph glyph-name="y" unicode="y" horiz-adv-x="453" 
d="M378 486l-88 -277q-5 -14 -8.5 -25t-7.5 -23.5t-8.5 -28t-10.5 -37.5h-4q-2 10 -10 37t-17 49l-123 305h-96l205 -510l-12 -38q-5 -14 -12 -32.5t-14 -27.5q-6 -8 -18.5 -17t-32.5 -9q-12 0 -24 3t-23 10q-13 8 -25 20l-42 -53q8 -8 19 -16t22 -15q19 -11 37.5 -15
t38.5 -4q29 0 53 9.5t43 30.5q16 17 28.5 44t18.5 46l191 574h-80z" />
    <glyph glyph-name="z" unicode="z" horiz-adv-x="430" 
d="M49 416h240l-254 -358v-58h360v70h-254l254 358v58h-346v-70z" />
    <glyph glyph-name="braceleft" unicode="{" horiz-adv-x="331" 
d="M50 207q23 -1 40 -11.5t27 -24.5q14 -19 19.5 -46.5t5.5 -62.5q0 -29 -1.5 -57t-1.5 -57q0 -19 3 -44t21 -54q21 -34 51 -51t77 -21l10 71q-13 3 -31 11t-27 20q-8 11 -11.5 28.5t-3.5 34.5q0 15 0.5 26t1 23.5t1 30t0.5 46.5q0 11 -1 25.5t-4.5 31t-9.5 33t-15 31.5
q-19 29 -41 40.5t-34 14.5q12 3 34 14.5t41 40.5q9 15 15 31.5t9.5 33t4.5 31t1 25.5q0 47 -1.5 74.5t-1.5 51.5q0 10 2 29t13 34q10 14 26.5 21.5t31.5 9.5l-10 71q-47 -4 -77 -21t-51 -51q-18 -29 -21 -54.5t-3 -45.5q0 -28 1.5 -56t1.5 -56q0 -27 -4.5 -56t-21.5 -53
q-14 -20 -31.5 -27.5t-34.5 -8.5v-76z" />
    <glyph glyph-name="bar" unicode="|" horiz-adv-x="304" 
d="M188 750h-72v-1000h72v1000z" />
    <glyph glyph-name="braceright" unicode="}" horiz-adv-x="331" 
d="M281 283q-17 1 -34.5 8.5t-31.5 27.5q-17 24 -21.5 53t-4.5 56q0 28 1.5 56t1.5 56q0 20 -3 45.5t-21 54.5q-21 34 -51 51t-77 21l-10 -71q15 -2 31.5 -9.5t26.5 -21.5q11 -15 13 -34t2 -29q0 -24 -1.5 -51.5t-1.5 -74.5q0 -11 1 -25.5t4.5 -31t9.5 -33t15 -31.5
q19 -29 41 -40.5t34 -14.5q-12 -3 -34 -14.5t-41 -40.5q-9 -15 -15 -31.5t-9.5 -33t-4.5 -31t-1 -25.5q0 -29 0.5 -46.5t1 -30t1 -23.5t0.5 -26q0 -17 -3.5 -34.5t-11.5 -28.5q-9 -12 -27 -20t-31 -11l10 -71q47 4 77 21t51 51q18 29 21 54t3 44q0 29 -1.5 57t-1.5 57
q0 35 5.5 62.5t19.5 46.5q10 14 27 24.5t40 11.5v76z" />
    <glyph glyph-name="asciitilde" unicode="~" horiz-adv-x="561" 
d="M280 276q22 -8 47 -15t57 -7q31 0 52 8t41 28q7 7 18 21t21 37l-48 23q-5 -9 -12.5 -18.5t-16.5 -15.5q-13 -8 -27 -10.5t-25 -2.5q-17 0 -31 3t-31 9l-52 18q-31 11 -52 15.5t-44 4.5q-31 0 -52 -8t-41 -28q-24 -24 -39 -58l48 -23q5 9 12.5 18.5t16.5 15.5
q13 8 26.5 10.5t24.5 2.5q27 0 54 -9z" />
    <glyph glyph-name="afii10051" horiz-adv-x="743" 
d="M205 0h98v334q40 16 73 21t62 5q9 0 22.5 -0.5t28 -3.5t29 -8.5t26.5 -14.5q14 -11 22.5 -25t12.5 -28.5t5 -27.5t1 -22v-40q0 -18 -4 -44.5t-21 -46.5q-18 -22 -40.5 -26.5t-39.5 -4.5q-12 0 -32 3t-49 17l-32 -71q32 -17 61.5 -23t57.5 -6q43 0 81.5 9.5t73.5 48.5
q35 40 43.5 84t8.5 86q0 23 -3 47t-11 46.5t-22.5 44t-38.5 39.5q-38 30 -84 38.5t-90 8.5q-35 0 -68.5 -6t-72.5 -20v206h230v80h-518v-80h190v-620z" />
    <glyph glyph-name="afii10051" unicode="&#x402;" horiz-adv-x="743" 
d="M205 0h98v334q40 16 73 21t62 5q9 0 22.5 -0.5t28 -3.5t29 -8.5t26.5 -14.5q14 -11 22.5 -25t12.5 -28.5t5 -27.5t1 -22v-40q0 -18 -4 -44.5t-21 -46.5q-18 -22 -40.5 -26.5t-39.5 -4.5q-12 0 -32 3t-49 17l-32 -71q32 -17 61.5 -23t57.5 -6q43 0 81.5 9.5t73.5 48.5
q35 40 43.5 84t8.5 86q0 23 -3 47t-11 46.5t-22.5 44t-38.5 39.5q-38 30 -84 38.5t-90 8.5q-35 0 -68.5 -6t-72.5 -20v206h230v80h-518v-80h190v-620z" />
    <glyph glyph-name="afii10052" horiz-adv-x="509" 
d="M95 700v-700h98v620h296v80h-394zM224 894l-101 -138h71l162 138h-132z" />
    <glyph glyph-name="afii10052" unicode="&#x403;" horiz-adv-x="509" 
d="M95 700v-700h98v620h296v80h-394zM224 894l-101 -138h71l162 138h-132z" />
    <glyph glyph-name="quotesinglbase" unicode="&#x201a;" horiz-adv-x="160" 
d="M125 -24v120h-90v-189z" />
    <glyph glyph-name="afii10100" unicode="&#x192;" horiz-adv-x="394" 
d="M77 486v-486h88v416h224v70h-312zM223 700l-92 -153h60l143 153h-111z" />
    <glyph glyph-name="afii10100" unicode="&#x453;" horiz-adv-x="394" 
d="M77 486v-486h88v416h224v70h-312zM223 700l-92 -153h60l143 153h-111z" />
    <glyph glyph-name="quotedblbase" unicode="&#x201e;" horiz-adv-x="335" 
d="M125 -24v120h-90v-189zM300 -24v120h-90v-189z" />
    <glyph glyph-name="ellipsis" unicode="&#x2026;" horiz-adv-x="653" 
d="M143 0v98h-98v-98h98zM370 0v98h-98v-98h98zM608 0v98h-98v-98h98z" />
    <glyph glyph-name="dagger" unicode="&#x2020;" horiz-adv-x="446" 
d="M176 529h-141v-94h141v-435h94v435h141v94h-141v171h-94v-171z" />
    <glyph glyph-name="daggerdbl" unicode="&#x2021;" horiz-adv-x="476" 
d="M191 529h-141v-94h141v-131h-141v-94h141v-210h94v210h141v94h-141v131h141v94h-141v171h-94v-171z" />
    <glyph glyph-name="accent" horiz-adv-x="10" 
d="M-170 700l-92 -153h60l143 153h-111z" />
    <glyph glyph-name="accent" unicode="&#x20ac;" horiz-adv-x="10" 
d="M-170 700l-92 -153h60l143 153h-111z" />
    <glyph glyph-name="accent" unicode="&#x301;" horiz-adv-x="10" 
d="M-170 700l-92 -153h60l143 153h-111z" />
    <glyph glyph-name="accent" unicode="&#x2c6;" horiz-adv-x="10" 
d="M-170 700l-92 -153h60l143 153h-111z" />
    <glyph glyph-name="perthousand" unicode="&#x2030;" horiz-adv-x="1245" 
d="M669 700h-70l-426 -700h70zM217 710q-39 0 -69 -14t-48 -35q-23 -27 -33.5 -66t-10.5 -80q0 -42 10.5 -81t33.5 -65q18 -21 48 -35t69 -14t69 14t48 35q23 26 33.5 65t10.5 81q0 41 -10.5 80t-33.5 66q-18 21 -48 35t-69 14zM295 498q0 -26 -3.5 -52.5t-20.5 -46.5
q-20 -23 -54 -23t-54 23q-17 20 -20.5 46.5t-3.5 52.5v33q0 26 2.5 52t21.5 47q8 10 21.5 17t32.5 7t32.5 -7t21.5 -17q19 -21 21.5 -47t2.5 -52v-33zM718 168q0 -26 -3.5 -52.5t-20.5 -46.5q-20 -23 -54 -23t-54 23q-17 20 -20.5 46.5t-3.5 52.5v33q0 26 2.5 52t21.5 47
q8 10 21.5 17t32.5 7t32.5 -7t21.5 -17q19 -21 21.5 -47t2.5 -52v-33zM640 380q-39 0 -69 -14t-48 -35q-23 -27 -33.5 -66t-10.5 -80q0 -42 10.5 -81t33.5 -65q18 -21 48 -35t69 -14t69 14t48 35q23 26 33.5 65t10.5 81q0 41 -10.5 80t-33.5 66q-18 21 -48 35t-69 14z
M1117 168q0 -26 -3.5 -52.5t-20.5 -46.5q-20 -23 -54 -23t-54 23q-17 20 -20.5 46.5t-3.5 52.5v33q0 26 2.5 52t21.5 47q8 10 21.5 17t32.5 7t32.5 -7t21.5 -17q19 -21 21.5 -47t2.5 -52v-33zM1039 380q-39 0 -69 -14t-48 -35q-23 -27 -33.5 -66t-10.5 -80q0 -42 10.5 -81
t33.5 -65q18 -21 48 -35t69 -14t69 14t48 35q23 26 33.5 65t10.5 81q0 41 -10.5 80t-33.5 66q-18 21 -48 35t-69 14z" />
    <glyph glyph-name="afii10058" unicode="&#x160;" horiz-adv-x="971" 
d="M560 421v279h-387l-3 -123q-1 -33 -2 -70.5t-3 -74.5t-4 -70.5t-5 -57.5q-4 -38 -8.5 -65t-9.5 -45t-9 -28.5t-7 -15.5q-21 -41 -54 -55.5t-63 -16.5l18 -88q51 2 87 17.5t60 40.5q16 17 28 38t19.5 43t12.5 42.5t8 37.5q4 27 8 60t7 67t4.5 66t2.5 56l5 162h197v-620
h194q23 0 49 2t52.5 9t53 19.5t49.5 33.5q35 31 50.5 71.5t15.5 78.5q0 44 -19 85.5t-57 71.5q-25 19 -51.5 29.5t-53 15t-52.5 5t-50 0.5h-83zM560 341h121q66 0 101.5 -34.5t35.5 -94.5q0 -27 -8.5 -51t-25 -42t-41 -28.5t-55.5 -10.5h-128v261z" />
    <glyph glyph-name="afii10058" unicode="&#x409;" horiz-adv-x="971" 
d="M560 421v279h-387l-3 -123q-1 -33 -2 -70.5t-3 -74.5t-4 -70.5t-5 -57.5q-4 -38 -8.5 -65t-9.5 -45t-9 -28.5t-7 -15.5q-21 -41 -54 -55.5t-63 -16.5l18 -88q51 2 87 17.5t60 40.5q16 17 28 38t19.5 43t12.5 42.5t8 37.5q4 27 8 60t7 67t4.5 66t2.5 56l5 162h197v-620
h194q23 0 49 2t52.5 9t53 19.5t49.5 33.5q35 31 50.5 71.5t15.5 78.5q0 44 -19 85.5t-57 71.5q-25 19 -51.5 29.5t-53 15t-52.5 5t-50 0.5h-83zM560 341h121q66 0 101.5 -34.5t35.5 -94.5q0 -27 -8.5 -51t-25 -42t-41 -28.5t-55.5 -10.5h-128v261z" />
    <glyph glyph-name="guilsinglleft" unicode="&#x2039;" horiz-adv-x="261" 
d="M131 315l110 203h-80l-116 -203l116 -211h80z" />
    <glyph glyph-name="afii10059" unicode="&#x152;" horiz-adv-x="1036" 
d="M625 413v287h-98v-287h-334v287h-98v-700h98v333h334v-333h194q24 0 50.5 2.5t53 9t52 19t48.5 33.5q35 31 50.5 69.5t15.5 76.5q0 43 -19 84t-57 70q-25 19 -51.5 29t-53 14.5t-52.5 5t-50 0.5h-83zM625 333h121q31 0 54.5 -7.5t39.5 -19.5q12 -10 27.5 -33t15.5 -65
q0 -32 -10 -53.5t-21 -33.5q-13 -14 -38.5 -27.5t-60.5 -13.5h-128v253z" />
    <glyph glyph-name="afii10059" unicode="&#x40a;" horiz-adv-x="1036" 
d="M625 413v287h-98v-287h-334v287h-98v-700h98v333h334v-333h194q24 0 50.5 2.5t53 9t52 19t48.5 33.5q35 31 50.5 69.5t15.5 76.5q0 43 -19 84t-57 70q-25 19 -51.5 29t-53 14.5t-52.5 5t-50 0.5h-83zM625 333h121q31 0 54.5 -7.5t39.5 -19.5q12 -10 27.5 -33t15.5 -65
q0 -32 -10 -53.5t-21 -33.5q-13 -14 -38.5 -27.5t-60.5 -13.5h-128v253z" />
    <glyph glyph-name="afii10061" horiz-adv-x="647" 
d="M193 700h-98v-700h98v330h94q22 0 45.5 -6.5t40.5 -20.5q13 -11 22 -30t20 -44l97 -229h110l-113 265q-6 15 -14.5 31t-21.5 31t-31.5 27t-44.5 18v5q22 6 37 17t25 25t16 29t11 28l25 74q3 8 6 18.5t7 21t9.5 19.5t13.5 15q8 5 15.5 6.5t12.5 1.5q8 0 14.5 -1t14.5 -5
l12 78q-9 2 -25 5t-31 3q-32 0 -57 -11q-16 -7 -27 -18t-18.5 -24t-12.5 -26.5t-9 -26.5l-36 -109q-5 -17 -12 -32.5t-19 -27.5t-31 -19.5t-48 -7.5h-97v290zM338 894l-101 -138h71l162 138h-132z" />
    <glyph glyph-name="afii10061" unicode="&#x40c;" horiz-adv-x="647" 
d="M193 700h-98v-700h98v330h94q22 0 45.5 -6.5t40.5 -20.5q13 -11 22 -30t20 -44l97 -229h110l-113 265q-6 15 -14.5 31t-21.5 31t-31.5 27t-44.5 18v5q22 6 37 17t25 25t16 29t11 28l25 74q3 8 6 18.5t7 21t9.5 19.5t13.5 15q8 5 15.5 6.5t12.5 1.5q8 0 14.5 -1t14.5 -5
l12 78q-9 2 -25 5t-31 3q-32 0 -57 -11q-16 -7 -27 -18t-18.5 -24t-12.5 -26.5t-9 -26.5l-36 -109q-5 -17 -12 -32.5t-19 -27.5t-31 -19.5t-48 -7.5h-97v290zM338 894l-101 -138h71l162 138h-132z" />
    <glyph glyph-name="afii10060" horiz-adv-x="760" 
d="M205 0h98v334q40 16 73 21t62 5q21 0 50.5 -4t55.5 -23q29 -22 35 -48t6 -55v-230h98v228q0 19 -1.5 40.5t-8.5 43t-20 42.5t-35 39q-21 17 -45 26.5t-48 14t-45 5.5t-36 1q-35 0 -68.5 -6t-72.5 -20v206h230v80h-518v-80h190v-620z" />
    <glyph glyph-name="afii10060" unicode="&#x40b;" horiz-adv-x="760" 
d="M205 0h98v334q40 16 73 21t62 5q21 0 50.5 -4t55.5 -23q29 -22 35 -48t6 -55v-230h98v228q0 19 -1.5 40.5t-8.5 43t-20 42.5t-35 39q-21 17 -45 26.5t-48 14t-45 5.5t-36 1q-35 0 -68.5 -6t-72.5 -20v206h230v80h-518v-80h190v-620z" />
    <glyph glyph-name="afii10145" horiz-adv-x="712" 
d="M617 700h-98v-620h-326v620h-98v-700h214v-153h94v153h214v700z" />
    <glyph glyph-name="afii10145" unicode="&#x40f;" horiz-adv-x="712" 
d="M617 700h-98v-620h-326v620h-98v-700h214v-153h94v153h214v700z" />
    <glyph glyph-name="afii10099" horiz-adv-x="613" 
d="M236 0v382q12 10 26 19t30 16q14 6 29.5 10.5t33.5 4.5q21 0 39 -6t30 -18q17 -17 20.5 -37.5t3.5 -39.5v-360q0 -24 -2.5 -50t-14.5 -44q-6 -8 -21 -19.5t-42 -11.5q-12 0 -24.5 3t-22.5 7l-10 4l-25 -59l13 -5q9 -4 27.5 -9t45.5 -5q36 0 64.5 11t48.5 29
q17 16 27 34.5t15.5 37.5t7 37.5t1.5 33.5v364q0 42 -11.5 72t-28.5 48q-21 23 -53 35t-67 12q-20 0 -40.5 -4t-37.5 -10q-31 -11 -62 -34v107h186v58h-186v99h-88v-99h-71v-58h71v-555h88z" />
    <glyph glyph-name="afii10099" unicode="&#x452;" horiz-adv-x="613" 
d="M236 0v382q12 10 26 19t30 16q14 6 29.5 10.5t33.5 4.5q21 0 39 -6t30 -18q17 -17 20.5 -37.5t3.5 -39.5v-360q0 -24 -2.5 -50t-14.5 -44q-6 -8 -21 -19.5t-42 -11.5q-12 0 -24.5 3t-22.5 7l-10 4l-25 -59l13 -5q9 -4 27.5 -9t45.5 -5q36 0 64.5 11t48.5 29
q17 16 27 34.5t15.5 37.5t7 37.5t1.5 33.5v364q0 42 -11.5 72t-28.5 48q-21 23 -53 35t-67 12q-20 0 -40.5 -4t-37.5 -10q-31 -11 -62 -34v107h186v58h-186v99h-88v-99h-71v-58h71v-555h88z" />
    <glyph glyph-name="quoteleft" unicode="&#x2018;" horiz-adv-x="160" 
d="M35 658v-120h90v189z" />
    <glyph glyph-name="quoteright" unicode="&#x2019;" horiz-adv-x="160" 
d="M125 580v120h-90v-189z" />
    <glyph glyph-name="quotedblleft" unicode="&#x201c;" horiz-adv-x="335" 
d="M210 658v-120h90v189zM35 658v-120h90v189z" />
    <glyph glyph-name="quotedblright" unicode="&#x201d;" horiz-adv-x="335" 
d="M125 580v120h-90v-189zM300 580v120h-90v-189z" />
    <glyph glyph-name="bullet" unicode="&#x2022;" horiz-adv-x="400" 
d="M100 337q0 -42 29 -71t71 -29q21 0 39 7.5t31.5 21t21.5 32t8 39.5t-8 39t-21.5 31.5t-31.5 21.5t-39 8t-39.5 -8t-32 -21.5t-21 -31.5t-7.5 -39z" />
    <glyph glyph-name="endash" unicode="&#x2013;" horiz-adv-x="500" 
d="M50 285h400v70h-400v-70z" />
    <glyph glyph-name="emdash" unicode="&#x2014;" horiz-adv-x="725" 
d="M35 285h655v70h-655v-70z" />
    <glyph glyph-name="Accent" horiz-adv-x="10" 
d="M-246 894l-101 -138h71l162 138h-132z" />
    <glyph glyph-name="Accent" unicode="&#x2dc;" horiz-adv-x="10" 
d="M-246 894l-101 -138h71l162 138h-132z" />
    <glyph glyph-name="trademark" unicode="&#x2122;" horiz-adv-x="821" 
d="M5 700v-56h111v-334h75v334h111v56h-297zM362 310h62v286l104 -186h24l103 195v-295h76v390h-90l-96 -179l-102 179h-81v-390z" />
    <glyph glyph-name="afii10106" unicode="&#x161;" horiz-adv-x="774" 
d="M437 307v179h-308l-1 -80q0 -11 -0.5 -33.5t-1.5 -49t-1.5 -52t-1.5 -42.5q-1 -18 -2.5 -38t-6 -39.5t-13 -36.5t-22.5 -29t-35 -19t-37 -9l23 -71q23 2 48 9t43 18q21 13 34 30.5t21.5 37.5t12.5 41.5t6 43.5q1 15 3 39.5t3.5 52.5t2.5 55t1 48l1 54h141v-416h208
q54 0 88 13.5t53 30.5q20 18 34 46t14 63q0 33 -13 62t-37 49q-18 15 -38 23.5t-40.5 13t-40 5.5t-35.5 1h-103zM437 237h121q27 0 44 -6.5t25 -14.5q16 -14 20.5 -30t4.5 -33q0 -26 -8 -40t-13 -19q-9 -10 -26.5 -17t-43.5 -7h-124v167z" />
    <glyph glyph-name="afii10106" unicode="&#x459;" horiz-adv-x="774" 
d="M437 307v179h-308l-1 -80q0 -11 -0.5 -33.5t-1.5 -49t-1.5 -52t-1.5 -42.5q-1 -18 -2.5 -38t-6 -39.5t-13 -36.5t-22.5 -29t-35 -19t-37 -9l23 -71q23 2 48 9t43 18q21 13 34 30.5t21.5 37.5t12.5 41.5t6 43.5q1 15 3 39.5t3.5 52.5t2.5 55t1 48l1 54h141v-416h208
q54 0 88 13.5t53 30.5q20 18 34 46t14 63q0 33 -13 62t-37 49q-18 15 -38 23.5t-40.5 13t-40 5.5t-35.5 1h-103zM437 237h121q27 0 44 -6.5t25 -14.5q16 -14 20.5 -30t4.5 -33q0 -26 -8 -40t-13 -19q-9 -10 -26.5 -17t-43.5 -7h-124v167z" />
    <glyph glyph-name="guilsinglright" unicode="&#x203a;" horiz-adv-x="261" 
d="M130 315l-110 -211h80l116 211l-116 203h-80z" />
    <glyph glyph-name="afii10107" unicode="&#x153;" horiz-adv-x="812" 
d="M475 298v188h-90v-188h-220v188h-88v-486h88v228h220v-228h208q9 0 25.5 1t36.5 5t40.5 13t38.5 24q20 17 34 45t14 61q0 32 -13 60t-37 48q-17 14 -37.5 22t-41.5 12.5t-40.5 5.5t-34.5 1h-103zM475 228h121q35 0 51 -8t21 -12q9 -8 15.5 -23t6.5 -37q0 -24 -8 -37
t-13 -18q-11 -11 -29 -17t-41 -6h-124v158z" />
    <glyph glyph-name="afii10107" unicode="&#x45a;" horiz-adv-x="812" 
d="M475 298v188h-90v-188h-220v188h-88v-486h88v228h220v-228h208q9 0 25.5 1t36.5 5t40.5 13t38.5 24q20 17 34 45t14 61q0 32 -13 60t-37 48q-17 14 -37.5 22t-41.5 12.5t-40.5 5.5t-34.5 1h-103zM475 228h121q35 0 51 -8t21 -12q9 -8 15.5 -23t6.5 -37q0 -24 -8 -37
t-13 -18q-11 -11 -29 -17t-41 -6h-124v158z" />
    <glyph glyph-name="afii10109" horiz-adv-x="515" 
d="M165 486h-88v-486h88v223h71q13 0 26 -2.5t26 -12.5q14 -11 21 -25t14 -30l69 -153h98l-80 179q-1 2 -10 19.5t-25 32.5q-24 22 -54 27v3q14 4 25 10.5t19 14.5q14 14 19.5 27.5t10.5 27.5l16 47q5 14 9.5 21t7.5 10q5 5 10 6t10 1t11.5 -1t14.5 -6l13 66
q-14 6 -28.5 8.5t-27.5 2.5q-19 0 -37 -7q-8 -3 -15.5 -8t-15 -13.5t-14 -22t-13.5 -33.5l-19 -56q-4 -11 -10 -24t-16 -22q-13 -12 -29 -14.5t-29 -2.5h-68v193zM282 700l-92 -153h60l143 153h-111z" />
    <glyph glyph-name="afii10109" unicode="&#x45c;" horiz-adv-x="515" 
d="M165 486h-88v-486h88v223h71q13 0 26 -2.5t26 -12.5q14 -11 21 -25t14 -30l69 -153h98l-80 179q-1 2 -10 19.5t-25 32.5q-24 22 -54 27v3q14 4 25 10.5t19 14.5q14 14 19.5 27.5t10.5 27.5l16 47q5 14 9.5 21t7.5 10q5 5 10 6t10 1t11.5 -1t14.5 -6l13 66
q-14 6 -28.5 8.5t-27.5 2.5q-19 0 -37 -7q-8 -3 -15.5 -8t-15 -13.5t-14 -22t-13.5 -33.5l-19 -56q-4 -11 -10 -24t-16 -22q-13 -12 -29 -14.5t-29 -2.5h-68v193zM282 700l-92 -153h60l143 153h-111z" />
    <glyph glyph-name="afii10108" horiz-adv-x="609" 
d="M236 0v382q12 10 26 19t30 16q14 6 29.5 10.5t33.5 4.5q21 0 39 -6t30 -18q17 -17 20.5 -37.5t3.5 -39.5v-331h88v329q0 42 -11.5 72t-28.5 48q-21 23 -53 35t-67 12q-20 0 -40.5 -4t-37.5 -10q-31 -11 -62 -34v107h186v58h-186v99h-88v-99h-71v-58h71v-555h88z" />
    <glyph glyph-name="afii10108" unicode="&#x45b;" horiz-adv-x="609" 
d="M236 0v382q12 10 26 19t30 16q14 6 29.5 10.5t33.5 4.5q21 0 39 -6t30 -18q17 -17 20.5 -37.5t3.5 -39.5v-331h88v329q0 42 -11.5 72t-28.5 48q-21 23 -53 35t-67 12q-20 0 -40.5 -4t-37.5 -10q-31 -11 -62 -34v107h186v58h-186v99h-88v-99h-71v-58h71v-555h88z" />
    <glyph glyph-name="afii10193" unicode="&#x178;" horiz-adv-x="538" 
d="M461 486h-88v-416h-208v416h-88v-486h148v-131h88v131h148v486z" />
    <glyph glyph-name="afii10193" unicode="&#x45f;" horiz-adv-x="538" 
d="M461 486h-88v-416h-208v416h-88v-486h148v-131h88v131h148v486z" />
    <glyph glyph-name="nonbreakingspace" unicode="&#xa0;" horiz-adv-x="233" 
 />
    <glyph glyph-name="afii10062" unicode="&#xa1;" horiz-adv-x="575" 
d="M10 700l257 -518l-14 -33q-17 -39 -38 -58.5t-52 -19.5q-32 0 -61 20l-37 -69q26 -17 49 -25.5t49 -8.5q32 0 59.5 9t47.5 26q25 21 42.5 55t34.5 76l223 546h-93l-122 -310q-5 -12 -9 -21.5t-8 -20t-8 -23t-9 -30.5l-193 405h-118zM161 893q-6 -15 -6 -32q0 -53 43 -80
q23 -14 51.5 -18.5t51.5 -4.5t51.5 4.5t51.5 18.5q43 27 43 80q0 17 -6 32l-73 -7q6 -33 -19 -48q-17 -11 -48 -11t-48 11q-25 15 -19 48z" />
    <glyph glyph-name="afii10062" unicode="&#x40e;" horiz-adv-x="575" 
d="M10 700l257 -518l-14 -33q-17 -39 -38 -58.5t-52 -19.5q-32 0 -61 20l-37 -69q26 -17 49 -25.5t49 -8.5q32 0 59.5 9t47.5 26q25 21 42.5 55t34.5 76l223 546h-93l-122 -310q-5 -12 -9 -21.5t-8 -20t-8 -23t-9 -30.5l-193 405h-118zM161 893q-6 -15 -6 -32q0 -53 43 -80
q23 -14 51.5 -18.5t51.5 -4.5t51.5 4.5t51.5 18.5q43 27 43 80q0 17 -6 32l-73 -7q6 -33 -19 -48q-17 -11 -48 -11t-48 11q-25 15 -19 48z" />
    <glyph glyph-name="afii10110" unicode="&#xa2;" horiz-adv-x="453" 
d="M378 486l-88 -277q-5 -14 -8.5 -25t-7.5 -23.5t-8.5 -28t-10.5 -37.5h-4q-2 10 -10 37t-17 49l-123 305h-96l205 -510l-12 -38q-5 -14 -12 -32.5t-14 -27.5q-6 -8 -18.5 -17t-32.5 -9q-12 0 -24 3t-23 10q-13 8 -25 20l-42 -53q8 -8 19 -16t22 -15q19 -11 37.5 -15
t38.5 -4q29 0 53 9.5t43 30.5q16 17 28.5 44t18.5 46l191 574h-80zM95 692q-3 -9 -4 -17t-1 -17q0 -21 8.5 -41.5t34.5 -35.5q20 -11 46 -15.5t47 -4.5t47 4.5t46 15.5q26 15 34.5 35.5t8.5 41.5q0 9 -1 17t-4 17l-70 -6q5 -17 0.5 -31t-15.5 -22q-9 -7 -22 -9.5t-24 -2.5
t-24 2.5t-22 9.5q-11 8 -15.5 22t0.5 31z" />
    <glyph glyph-name="afii10110" unicode="&#x45e;" horiz-adv-x="453" 
d="M378 486l-88 -277q-5 -14 -8.5 -25t-7.5 -23.5t-8.5 -28t-10.5 -37.5h-4q-2 10 -10 37t-17 49l-123 305h-96l205 -510l-12 -38q-5 -14 -12 -32.5t-14 -27.5q-6 -8 -18.5 -17t-32.5 -9q-12 0 -24 3t-23 10q-13 8 -25 20l-42 -53q8 -8 19 -16t22 -15q19 -11 37.5 -15
t38.5 -4q29 0 53 9.5t43 30.5q16 17 28.5 44t18.5 46l191 574h-80zM95 692q-3 -9 -4 -17t-1 -17q0 -21 8.5 -41.5t34.5 -35.5q20 -11 46 -15.5t47 -4.5t47 4.5t46 15.5q26 15 34.5 35.5t8.5 41.5q0 9 -1 17t-4 17l-70 -6q5 -17 0.5 -31t-15.5 -22q-9 -7 -22 -9.5t-24 -2.5
t-24 2.5t-22 9.5q-11 8 -15.5 22t0.5 31z" />
    <glyph glyph-name="afii10057" unicode="&#xa3;" horiz-adv-x="449" 
d="M271 700v-490q0 -9 -0.5 -21t-3.5 -26t-9 -28.5t-16 -26.5q-14 -18 -38.5 -29t-57.5 -11q-34 0 -59.5 13t-42.5 30l-49 -63q7 -6 23.5 -18.5t39.5 -23.5q26 -11 49 -14.5t45 -3.5q42 0 85 11.5t77 49.5q18 20 29 43t16.5 46.5t7.5 45.5t2 40v476h-98z" />
    <glyph glyph-name="afii10057" unicode="&#x408;" horiz-adv-x="449" 
d="M271 700v-490q0 -9 -0.5 -21t-3.5 -26t-9 -28.5t-16 -26.5q-14 -18 -38.5 -29t-57.5 -11q-34 0 -59.5 13t-42.5 30l-49 -63q7 -6 23.5 -18.5t39.5 -23.5q26 -11 49 -14.5t45 -3.5q42 0 85 11.5t77 49.5q18 20 29 43t16.5 46.5t7.5 45.5t2 40v476h-98z" />
    <glyph glyph-name="currency" unicode="&#xa4;" horiz-adv-x="556" 
d="M79 462l35 -35q-23 -30 -29.5 -60.5t-6.5 -52.5t6.5 -52.5t29.5 -60.5l-35 -35l51 -51l35 35q30 -23 60.5 -29.5t52.5 -6.5t52.5 6.5t60.5 29.5l35 -35l51 51l-35 35q23 30 29.5 60.5t6.5 52.5t-6.5 52.5t-29.5 60.5l35 35l-51 51l-35 -35q-30 23 -60.5 29.5t-52.5 6.5
t-52.5 -6.5t-60.5 -29.5l-35 35zM132 314q0 30 11.5 56.5t31.5 46.5t46.5 31.5t56.5 11.5t56.5 -11.5t46.5 -31.5t31.5 -46.5t11.5 -56.5t-11.5 -56.5t-31.5 -46.5t-46.5 -31.5t-56.5 -11.5t-56.5 11.5t-46.5 31.5t-31.5 46.5t-11.5 56.5z" />
    <glyph glyph-name="afii10050" unicode="&#xa5;" horiz-adv-x="509" 
d="M95 700v-700h98v620h296v156h-90v-76h-304z" />
    <glyph glyph-name="afii10050" unicode="&#x490;" horiz-adv-x="509" 
d="M95 700v-700h98v620h296v156h-90v-76h-304z" />
    <glyph glyph-name="brokenbar" unicode="&#xa6;" horiz-adv-x="304" 
d="M116 700v-350h72v350h-72zM188 200h-72v-350h72v350z" />
    <glyph glyph-name="section" unicode="&#xa7;" horiz-adv-x="582" 
d="M508 566q-18 45 -46 70.5t-59 39t-60.5 17t-51.5 3.5q-57 0 -96 -15t-63 -38t-34.5 -52t-10.5 -56q0 -38 18 -71t53 -54q-7 -5 -21 -16.5t-28.5 -30t-25 -44t-10.5 -56.5q0 -42 17.5 -70t44 -46t58 -29t59.5 -19l62 -18q17 -5 36.5 -11.5t36 -17t27.5 -26t11 -38.5
q0 -15 -8 -30.5t-23.5 -28t-38.5 -20.5t-54 -8q-45 0 -81.5 21t-56.5 65l-108 -17q21 -53 54.5 -82.5t69 -44.5t67.5 -18.5t51 -3.5q65 0 110.5 18t74.5 45.5t42 60.5t13 63q0 49 -25.5 85t-63.5 55q27 23 50 58.5t23 80.5q0 33 -11.5 57.5t-32 42.5t-47.5 30.5t-58 22.5
l-55 18q-16 5 -36 12t-38 18t-30.5 26.5t-12.5 38.5t24 44t70 21q10 0 26.5 -2t34 -9.5t34 -21t27.5 -36.5zM315 349q33 -12 53 -22.5t30.5 -20.5t14 -20t3.5 -22q0 -28 -16 -50.5t-42 -35.5l-72 25q-15 5 -33.5 11.5t-35.5 16.5t-28.5 24.5t-11.5 37.5q0 25 17.5 47.5
t44.5 36.5z" />
    <glyph glyph-name="afii10023" unicode="&#xa8;" horiz-adv-x="523" 
d="M458 700h-363v-700h398v80h-300v249h265v80h-265v211h265v80zM127 836q0 -25 17.5 -42.5t42.5 -17.5t42.5 17.5t17.5 42.5t-17.5 42.5t-42.5 17.5t-42.5 -17.5t-17.5 -42.5zM311 836q0 -25 17.5 -42.5t42.5 -17.5t42.5 17.5t17.5 42.5t-17.5 42.5t-42.5 17.5t-42.5 -17.5
t-17.5 -42.5z" />
    <glyph glyph-name="afii10023" unicode="&#x401;" horiz-adv-x="523" 
d="M458 700h-363v-700h398v80h-300v249h265v80h-265v211h265v80zM127 836q0 -25 17.5 -42.5t42.5 -17.5t42.5 17.5t17.5 42.5t-17.5 42.5t-42.5 17.5t-42.5 -17.5t-17.5 -42.5zM311 836q0 -25 17.5 -42.5t42.5 -17.5t42.5 17.5t17.5 42.5t-17.5 42.5t-42.5 17.5t-42.5 -17.5
t-17.5 -42.5z" />
    <glyph glyph-name="copyright" unicode="&#xa9;" horiz-adv-x="810" 
d="M536 225q-23 -10 -31.5 -13.5t-13.5 -5.5q-18 -7 -31.5 -8.5t-29.5 -1.5q-15 0 -38.5 4t-43.5 23q-24 23 -28.5 59.5t-4.5 78.5q0 39 4 66t15 45q7 12 16.5 19.5t19.5 11t19.5 5t15.5 1.5q17 0 33.5 -6t27.5 -17q12 -13 13.5 -27.5t-0.5 -34.5l73 6q11 34 -2 64t-43 47
q-18 11 -43 16.5t-49 5.5q-31 0 -63 -8.5t-55 -26.5q-27 -21 -48.5 -63.5t-21.5 -117.5q0 -14 1.5 -34.5t8.5 -44.5t19.5 -48t35.5 -43q29 -25 60.5 -32.5t61.5 -7.5q35 0 55 4t40 12q14 5 26.5 10.5t27.5 13.5zM45 350q0 -85 31.5 -149t74.5 -106q52 -51 117 -78t137 -27
t137 27t117 78q43 42 74.5 106t31.5 149t-31.5 149t-74.5 106q-52 51 -117 78t-137 27t-137 -27t-117 -78q-43 -42 -74.5 -106t-31.5 -149zM105 350q0 64 23.5 120.5t64.5 98.5t95.5 66.5t116.5 24.5t116.5 -24.5t95.5 -66.5t64.5 -98.5t23.5 -120.5t-23.5 -120.5
t-64.5 -98.5t-95.5 -66.5t-116.5 -24.5t-116.5 24.5t-95.5 66.5t-64.5 98.5t-23.5 120.5z" />
    <glyph glyph-name="afii10053" unicode="&#xaa;" horiz-adv-x="616" 
d="M454 514q2 29 -5 53t-28 41q-19 16 -47.5 22t-55.5 6q-28 0 -49 -6.5t-35.5 -15t-22.5 -16.5l-11 -11q-13 -14 -22.5 -35.5t-15.5 -46t-9 -50t-3 -46.5v-9h248v-80h-248v-9q0 -24 3 -50.5t10 -51.5t18 -47.5t27 -39.5q23 -25 60 -39.5t82 -14.5q34 0 62.5 9t41.5 14
q8 3 24.5 10.5t37.5 20.5l37 -69q-31 -20 -74 -37q-33 -14 -64 -21t-73 -7q-63 0 -119 19t-101 71q-25 30 -40.5 64t-24.5 69t-12 70.5t-3 68.5q0 32 2.5 67.5t11 71.5t23.5 70.5t39 63.5q22 27 47 44t51.5 27t52 14t49.5 4q41 0 85.5 -8.5t78.5 -28.5q42 -26 57.5 -67.5
t3.5 -87.5z" />
    <glyph glyph-name="afii10053" unicode="&#x404;" horiz-adv-x="616" 
d="M454 514q2 29 -5 53t-28 41q-19 16 -47.5 22t-55.5 6q-28 0 -49 -6.5t-35.5 -15t-22.5 -16.5l-11 -11q-13 -14 -22.5 -35.5t-15.5 -46t-9 -50t-3 -46.5v-9h248v-80h-248v-9q0 -24 3 -50.5t10 -51.5t18 -47.5t27 -39.5q23 -25 60 -39.5t82 -14.5q34 0 62.5 9t41.5 14
q8 3 24.5 10.5t37.5 20.5l37 -69q-31 -20 -74 -37q-33 -14 -64 -21t-73 -7q-63 0 -119 19t-101 71q-25 30 -40.5 64t-24.5 69t-12 70.5t-3 68.5q0 32 2.5 67.5t11 71.5t23.5 70.5t39 63.5q22 27 47 44t51.5 27t52 14t49.5 4q41 0 85.5 -8.5t78.5 -28.5q42 -26 57.5 -67.5
t3.5 -87.5z" />
    <glyph glyph-name="guillemotleft" unicode="&#xab;" horiz-adv-x="430" 
d="M131 315l110 203h-80l-116 -203l116 -211h80zM300 315l110 203h-80l-116 -203l116 -211h80z" />
    <glyph glyph-name="logicalnot" unicode="&#xac;" horiz-adv-x="393" 
d="M30 356v-72h270v-65h63v137h-333z" />
    <glyph glyph-name="hyphen" unicode="&#xad;" horiz-adv-x="279" 
d="M30 356v-72h219v72h-219z" />
    <glyph glyph-name="hyphen" unicode="&#x2010;" horiz-adv-x="279" 
d="M30 356v-72h219v72h-219z" />
    <glyph glyph-name="registered" unicode="&#xae;" horiz-adv-x="810" 
d="M250 558v-414h80v172h66q7 0 18 -3t22 -14q2 -2 7.5 -11t16.5 -35l44 -109h92l-54 122q-2 5 -8 17.5t-11 20.5q-7 11 -14.5 19t-20.5 13q19 3 37 12t32 23q28 30 28 74q0 26 -11.5 47t-27.5 34q-14 11 -30.5 17.5t-33 9.5t-30.5 4t-22 1h-180zM330 498h92q17 0 32 -1.5
t27 -11.5q5 -5 12 -15.5t7 -30.5q0 -16 -5 -28t-17 -21q-14 -11 -28 -12.5t-28 -1.5h-92v122zM45 350q0 -85 31.5 -149t74.5 -106q52 -51 117 -78t137 -27t137 27t117 78q43 42 74.5 106t31.5 149t-31.5 149t-74.5 106q-52 51 -117 78t-137 27t-137 -27t-117 -78
q-43 -42 -74.5 -106t-31.5 -149zM105 350q0 64 23.5 120.5t64.5 98.5t95.5 66.5t116.5 24.5t116.5 -24.5t95.5 -66.5t64.5 -98.5t23.5 -120.5t-23.5 -120.5t-64.5 -98.5t-95.5 -66.5t-116.5 -24.5t-116.5 24.5t-95.5 66.5t-64.5 98.5t-23.5 120.5z" />
    <glyph glyph-name="afii10056" unicode="&#xaf;" horiz-adv-x="288" 
d="M95 0h98v700h-98v-700zM177 828q0 -22 16.5 -42.5t46.5 -20.5q27 0 45 18t18 45q0 26 -17.5 44.5t-45.5 18.5q-16 0 -27.5 -6t-19.5 -15.5t-12 -20.5t-4 -21zM-12 828q0 -27 18 -45t45 -18q30 0 46.5 20.5t16.5 42.5q0 10 -4 21t-12 20.5t-19.5 15.5t-27.5 6
q-28 0 -45.5 -18.5t-17.5 -44.5z" />
    <glyph glyph-name="afii10056" unicode="&#x407;" horiz-adv-x="288" 
d="M95 0h98v700h-98v-700zM177 828q0 -22 16.5 -42.5t46.5 -20.5q27 0 45 18t18 45q0 26 -17.5 44.5t-45.5 18.5q-16 0 -27.5 -6t-19.5 -15.5t-12 -20.5t-4 -21zM-12 828q0 -27 18 -45t45 -18q30 0 46.5 20.5t16.5 42.5q0 10 -4 21t-12 20.5t-19.5 15.5t-27.5 6
q-28 0 -45.5 -18.5t-17.5 -44.5z" />
    <glyph glyph-name="degree" unicode="&#xb0;" horiz-adv-x="439" 
d="M70 546q0 -31 12 -58.5t32 -47.5t47.5 -32t58.5 -12t58.5 12t47.5 32t32 47.5t12 58.5t-12 58.5t-32 47.5t-47.5 32t-58.5 12t-58.5 -12t-47.5 -32t-32 -47.5t-12 -58.5zM140 546q0 33 23.5 56.5t56.5 23.5t56.5 -23.5t23.5 -56.5t-23.5 -56.5t-56.5 -23.5t-56.5 23.5
t-23.5 56.5z" />
    <glyph glyph-name="plusminus" unicode="&#xb1;" horiz-adv-x="542" 
d="M235 540v-190h-190v-72h190v-149h72v149h190v72h-190v190h-72zM45 72v-72h452v72h-452z" />
    <glyph glyph-name="afii10055" unicode="&#xb2;" horiz-adv-x="288" 
d="M95 0h98v700h-98v-700z" />
    <glyph glyph-name="afii10055" unicode="&#x406;" horiz-adv-x="288" 
d="M95 0h98v700h-98v-700z" />
    <glyph glyph-name="afii10103" unicode="&#xb3;" horiz-adv-x="243" 
d="M35 486v-70h56v-416h88v486h-144zM73 646q0 -25 17.5 -42.5t42.5 -17.5t42.5 17.5t17.5 42.5t-17.5 42.5t-42.5 17.5t-42.5 -17.5t-17.5 -42.5z" />
    <glyph glyph-name="afii10103" unicode="&#x456;" horiz-adv-x="243" 
d="M35 486v-70h56v-416h88v486h-144zM73 646q0 -25 17.5 -42.5t42.5 -17.5t42.5 17.5t17.5 42.5t-17.5 42.5t-42.5 17.5t-42.5 -17.5t-17.5 -42.5z" />
    <glyph glyph-name="afii10098" unicode="&#xb4;" horiz-adv-x="394" 
d="M77 486v-486h88v416h224v135h-75v-65h-237z" />
    <glyph glyph-name="afii10098" unicode="&#x491;" horiz-adv-x="394" 
d="M77 486v-486h88v416h224v135h-75v-65h-237z" />
    <glyph glyph-name="mu" unicode="&#xb5;" horiz-adv-x="460" 
d="M339 486l-72 -374q-11 -9 -24.5 -19.5t-24.5 -16.5q-16 -9 -39 -15.5t-43 -6.5t-37 6.5t-27 18.5q-19 24 -11 67l66 340h-88l-136 -704h88l43 223q12 -5 31 -10t45 -5q24 0 45.5 5t43.5 15q17 8 33.5 18.5t32.5 24.5l-10 -53h135l14 70h-57l80 416h-88z" />
    <glyph glyph-name="paragraph" unicode="&#xb6;" horiz-adv-x="618" 
d="M492 625h81v60h-283q-49 0 -92.5 -19t-76.5 -51.5t-52 -76t-19 -93.5q0 -41 15.5 -83t47 -76.5t78 -57t108.5 -23.5v-391h60v811h73v-811h60v811z" />
    <glyph glyph-name="periodcentered" unicode="&#xb7;" horiz-adv-x="260" 
d="M70 337q0 -25 17.5 -42.5t42.5 -17.5t42.5 17.5t17.5 42.5t-17.5 42.5t-42.5 17.5t-42.5 -17.5t-17.5 -42.5z" />
    <glyph glyph-name="periodcentered" unicode="&#x22c5;" horiz-adv-x="260" 
d="M70 337q0 -25 17.5 -42.5t42.5 -17.5t42.5 17.5t17.5 42.5t-17.5 42.5t-42.5 17.5t-42.5 -17.5t-17.5 -42.5z" />
    <glyph glyph-name="periodcentered" unicode="&#x2219;" horiz-adv-x="260" 
d="M70 337q0 -25 17.5 -42.5t42.5 -17.5t42.5 17.5t17.5 42.5t-17.5 42.5t-42.5 17.5t-42.5 -17.5t-17.5 -42.5z" />
    <glyph glyph-name="afii10071" unicode="&#xb8;" horiz-adv-x="492" 
d="M148 222h300v22q0 59 -7.5 107t-43.5 87q-24 26 -60 42t-83 16q-51 0 -90.5 -19t-62.5 -45q-19 -22 -29.5 -46t-15 -48t-5.5 -46.5t-1 -40.5q0 -21 2 -45.5t8 -50t17.5 -50t30.5 -45.5q25 -28 67.5 -49t103.5 -21q27 0 55.5 4.5t58.5 15.5q16 6 32 14t27 14l-28 57
q-12 -6 -25.5 -12t-30.5 -11q-20 -6 -35 -9t-36 -3q-35 0 -66.5 10.5t-48.5 29.5q-12 13 -23 39t-11 70v13zM148 286v11q0 42 10.5 66.5t21.5 36.5q10 11 27.5 21.5t45.5 10.5q20 0 37.5 -5t31.5 -19q24 -23 28 -49.5t4 -52.5v-20h-206zM297 621q0 -25 17.5 -42.5
t42.5 -17.5t42.5 17.5t17.5 42.5t-17.5 42.5t-42.5 17.5t-42.5 -17.5t-17.5 -42.5zM101 621q0 -25 17.5 -42.5t42.5 -17.5t42.5 17.5t17.5 42.5t-17.5 42.5t-42.5 17.5t-42.5 -17.5t-17.5 -42.5z" />
    <glyph glyph-name="afii10071" unicode="&#x451;" horiz-adv-x="492" 
d="M148 222h300v22q0 59 -7.5 107t-43.5 87q-24 26 -60 42t-83 16q-51 0 -90.5 -19t-62.5 -45q-19 -22 -29.5 -46t-15 -48t-5.5 -46.5t-1 -40.5q0 -21 2 -45.5t8 -50t17.5 -50t30.5 -45.5q25 -28 67.5 -49t103.5 -21q27 0 55.5 4.5t58.5 15.5q16 6 32 14t27 14l-28 57
q-12 -6 -25.5 -12t-30.5 -11q-20 -6 -35 -9t-36 -3q-35 0 -66.5 10.5t-48.5 29.5q-12 13 -23 39t-11 70v13zM148 286v11q0 42 10.5 66.5t21.5 36.5q10 11 27.5 21.5t45.5 10.5q20 0 37.5 -5t31.5 -19q24 -23 28 -49.5t4 -52.5v-20h-206zM297 621q0 -25 17.5 -42.5
t42.5 -17.5t42.5 17.5t17.5 42.5t-17.5 42.5t-42.5 17.5t-42.5 -17.5t-17.5 -42.5zM101 621q0 -25 17.5 -42.5t42.5 -17.5t42.5 17.5t17.5 42.5t-17.5 42.5t-42.5 17.5t-42.5 -17.5t-17.5 -42.5z" />
    <glyph glyph-name="afii61352" unicode="&#xb9;" horiz-adv-x="1028" 
d="M95 700v-700h90v528l328 -528h90v700h-90v-528l-328 528h-90zM828 611q-28 0 -53 -10t-46 -34q-28 -32 -34.5 -67t-6.5 -65q0 -29 6.5 -65t34.5 -67q21 -24 46.5 -33.5t52.5 -9.5q41 0 66.5 16.5t39.5 35.5q12 16 19 35t10 36t4 31t1 21q0 36 -9 70t-29 59
q-14 17 -38.5 32t-63.5 15zM828 551q22 0 33.5 -11.5t16.5 -22.5t9.5 -30t4.5 -52q0 -41 -6.5 -60t-8.5 -24q-11 -20 -25.5 -25.5t-23.5 -5.5q-11 0 -26 6.5t-26 29.5q-8 17 -10 36.5t-2 38.5q0 32 3.5 52t10.5 34q16 34 50 34zM698 196v-68h260v68h-260z" />
    <glyph glyph-name="afii61352" unicode="&#x2116;" horiz-adv-x="1028" 
d="M95 700v-700h90v528l328 -528h90v700h-90v-528l-328 528h-90zM828 611q-28 0 -53 -10t-46 -34q-28 -32 -34.5 -67t-6.5 -65q0 -29 6.5 -65t34.5 -67q21 -24 46.5 -33.5t52.5 -9.5q41 0 66.5 16.5t39.5 35.5q12 16 19 35t10 36t4 31t1 21q0 36 -9 70t-29 59
q-14 17 -38.5 32t-63.5 15zM828 551q22 0 33.5 -11.5t16.5 -22.5t9.5 -30t4.5 -52q0 -41 -6.5 -60t-8.5 -24q-11 -20 -25.5 -25.5t-23.5 -5.5q-11 0 -26 6.5t-26 29.5q-8 17 -10 36.5t-2 38.5q0 32 3.5 52t10.5 34q16 34 50 34zM698 196v-68h260v68h-260z" />
    <glyph glyph-name="afii10101" unicode="&#xba;" horiz-adv-x="494" 
d="M412 96q-27 -14 -53 -24q-23 -8 -42 -11t-42 -3q-18 0 -45 4.5t-50 26.5q-26 24 -31.5 56t-5.5 61v7h179v68h-178v8q0 40 9 68t24 44q11 12 31 21.5t52 9.5q17 0 35.5 -2.5t32.5 -10.5q17 -10 23.5 -24.5t4.5 -31.5l77 4q8 35 -2.5 58.5t-35.5 39.5q-27 17 -65 24t-72 7
q-13 0 -30.5 -1.5t-36 -6.5t-38 -14.5t-37.5 -25.5q-29 -26 -50 -76t-21 -134q0 -23 2.5 -48.5t10 -52t22 -51.5t37.5 -46q36 -33 77 -42.5t73 -9.5t61 5t53 14q14 5 31.5 13t31.5 16z" />
    <glyph glyph-name="afii10101" unicode="&#x454;" horiz-adv-x="494" 
d="M412 96q-27 -14 -53 -24q-23 -8 -42 -11t-42 -3q-18 0 -45 4.5t-50 26.5q-26 24 -31.5 56t-5.5 61v7h179v68h-178v8q0 40 9 68t24 44q11 12 31 21.5t52 9.5q17 0 35.5 -2.5t32.5 -10.5q17 -10 23.5 -24.5t4.5 -31.5l77 4q8 35 -2.5 58.5t-35.5 39.5q-27 17 -65 24t-72 7
q-13 0 -30.5 -1.5t-36 -6.5t-38 -14.5t-37.5 -25.5q-29 -26 -50 -76t-21 -134q0 -23 2.5 -48.5t10 -52t22 -51.5t37.5 -46q36 -33 77 -42.5t73 -9.5t61 5t53 14q14 5 31.5 13t31.5 16z" />
    <glyph glyph-name="guillemotright" unicode="&#xbb;" horiz-adv-x="435" 
d="M299 315l-110 -211h85l116 211l-116 203h-85zM130 315l-110 -211h85l116 211l-116 203h-85z" />
    <glyph glyph-name="afii10105" unicode="&#xbc;" horiz-adv-x="243" 
d="M35 486v-70h56v-634h88v704h-144zM73 646q0 -25 17.5 -42.5t42.5 -17.5t42.5 17.5t17.5 42.5t-17.5 42.5t-42.5 17.5t-42.5 -17.5t-17.5 -42.5z" />
    <glyph glyph-name="afii10105" unicode="&#x458;" horiz-adv-x="243" 
d="M35 486v-70h56v-634h88v704h-144zM73 646q0 -25 17.5 -42.5t42.5 -17.5t42.5 17.5t17.5 42.5t-17.5 42.5t-42.5 17.5t-42.5 -17.5t-17.5 -42.5z" />
    <glyph glyph-name="afii10054" unicode="&#xbd;" horiz-adv-x="589" 
d="M50 69q47 -38 108.5 -59.5t122.5 -21.5q60 0 107.5 15.5t81 44.5t51.5 69t18 90q0 77 -41.5 120.5t-119.5 64.5l-70 19q-30 8 -52.5 17.5t-37.5 23t-22.5 31.5t-7.5 44q0 17 5 36.5t18.5 35.5t38.5 26.5t65 10.5q8 0 23.5 -1.5t36 -7.5t44.5 -19t49 -36l49 61
q-45 43 -99 63t-111 20q-53 0 -94.5 -16t-69.5 -43.5t-42.5 -65.5t-14.5 -82q0 -52 18.5 -85.5t44 -53.5t53 -30t46.5 -15l55 -15q31 -9 55.5 -18t41.5 -22t25.5 -32.5t8.5 -47.5q0 -24 -8 -46.5t-25 -40.5t-45 -28.5t-68 -10.5q-45 0 -94.5 16t-94.5 54z" />
    <glyph glyph-name="afii10054" unicode="&#x405;" horiz-adv-x="589" 
d="M50 69q47 -38 108.5 -59.5t122.5 -21.5q60 0 107.5 15.5t81 44.5t51.5 69t18 90q0 77 -41.5 120.5t-119.5 64.5l-70 19q-30 8 -52.5 17.5t-37.5 23t-22.5 31.5t-7.5 44q0 17 5 36.5t18.5 35.5t38.5 26.5t65 10.5q8 0 23.5 -1.5t36 -7.5t44.5 -19t49 -36l49 61
q-45 43 -99 63t-111 20q-53 0 -94.5 -16t-69.5 -43.5t-42.5 -65.5t-14.5 -82q0 -52 18.5 -85.5t44 -53.5t53 -30t46.5 -15l55 -15q31 -9 55.5 -18t41.5 -22t25.5 -32.5t8.5 -47.5q0 -24 -8 -46.5t-25 -40.5t-45 -28.5t-68 -10.5q-45 0 -94.5 16t-94.5 54z" />
    <glyph glyph-name="afii10102" unicode="&#xbe;" horiz-adv-x="430" 
d="M380 446q-28 23 -61 34q-42 16 -94 16q-20 0 -52.5 -4.5t-61.5 -25.5q-25 -18 -40 -48t-15 -66q0 -17 5 -38.5t15 -37.5q19 -31 50 -43.5t60 -18.5l44 -9q15 -3 30.5 -7t28.5 -15t17 -23.5t4 -26.5q0 -19 -6.5 -32.5t-16.5 -22.5q-17 -16 -36.5 -20t-39.5 -4
q-25 0 -46.5 5t-41.5 14q-11 5 -25 13.5t-26 16.5l-39 -52q37 -30 79.5 -45.5t98.5 -15.5q57 0 92 16.5t54 34.5q22 21 32.5 46t10.5 57q0 26 -6.5 48.5t-25.5 42.5q-22 23 -48.5 31.5t-52.5 13.5l-35 7q-20 4 -37 8.5t-31 18.5q-11 11 -14.5 23.5t-3.5 22.5q0 26 9.5 39.5
t17.5 18.5q13 9 26.5 11.5t26.5 2.5q20 0 37.5 -3.5t33.5 -8.5q15 -5 27 -12t22 -15z" />
    <glyph glyph-name="afii10102" unicode="&#x455;" horiz-adv-x="430" 
d="M380 446q-28 23 -61 34q-42 16 -94 16q-20 0 -52.5 -4.5t-61.5 -25.5q-25 -18 -40 -48t-15 -66q0 -17 5 -38.5t15 -37.5q19 -31 50 -43.5t60 -18.5l44 -9q15 -3 30.5 -7t28.5 -15t17 -23.5t4 -26.5q0 -19 -6.5 -32.5t-16.5 -22.5q-17 -16 -36.5 -20t-39.5 -4
q-25 0 -46.5 5t-41.5 14q-11 5 -25 13.5t-26 16.5l-39 -52q37 -30 79.5 -45.5t98.5 -15.5q57 0 92 16.5t54 34.5q22 21 32.5 46t10.5 57q0 26 -6.5 48.5t-25.5 42.5q-22 23 -48.5 31.5t-52.5 13.5l-35 7q-20 4 -37 8.5t-31 18.5q-11 11 -14.5 23.5t-3.5 22.5q0 26 9.5 39.5
t17.5 18.5q13 9 26.5 11.5t26.5 2.5q20 0 37.5 -3.5t33.5 -8.5q15 -5 27 -12t22 -15z" />
    <glyph glyph-name="afii10104" unicode="&#xbf;" horiz-adv-x="213" 
d="M25 486v-70h56v-416h88v486h-144zM127 619q0 -25 17.5 -42.5t42.5 -17.5t42.5 17.5t17.5 42.5t-17.5 42.5t-42.5 17.5t-42.5 -17.5t-17.5 -42.5zM-34 619q0 -25 17.5 -42.5t43.5 -17.5q25 0 42.5 17.5t17.5 42.5t-17.5 42.5t-42.5 17.5q-26 0 -43.5 -17.5t-17.5 -42.5z
" />
    <glyph glyph-name="afii10104" unicode="&#x457;" horiz-adv-x="213" 
d="M25 486v-70h56v-416h88v486h-144zM127 619q0 -25 17.5 -42.5t42.5 -17.5t42.5 17.5t17.5 42.5t-17.5 42.5t-42.5 17.5t-42.5 -17.5t-17.5 -42.5zM-34 619q0 -25 17.5 -42.5t43.5 -17.5q25 0 42.5 17.5t17.5 42.5t-17.5 42.5t-42.5 17.5q-26 0 -43.5 -17.5t-17.5 -42.5z
" />
    <glyph glyph-name="afii10017" unicode="&#xc0;" horiz-adv-x="620" 
d="M351 700h-82l-259 -700h93l72 194h250l72 -194h113zM199 272l75 204q7 18 13 38.5t11 49.5h4q5 -32 10.5 -51t10.5 -32l78 -209h-202z" />
    <glyph glyph-name="afii10017" unicode="&#x410;" horiz-adv-x="620" 
d="M351 700h-82l-259 -700h93l72 194h250l72 -194h113zM199 272l75 204q7 18 13 38.5t11 49.5h4q5 -32 10.5 -51t10.5 -32l78 -209h-202z" />
    <glyph glyph-name="afii10018" unicode="&#xc1;" horiz-adv-x="625" 
d="M95 0h199q24 0 51 2t54 9t53 19t48 32q32 29 48.5 68.5t16.5 75.5q0 40 -18.5 83.5t-56.5 73.5q-24 19 -51 29.5t-54 15t-53.5 5t-50.5 0.5h-88v207h305v80h-403v-700zM193 333h126q8 0 20 -0.5t25.5 -3.5t27 -8.5t25.5 -15.5t26 -33t14 -68q0 -35 -10 -55t-19 -30
q-16 -17 -43 -28t-59 -11h-133v253z" />
    <glyph glyph-name="afii10018" unicode="&#x411;" horiz-adv-x="625" 
d="M95 0h199q24 0 51 2t54 9t53 19t48 32q32 29 48.5 68.5t16.5 75.5q0 40 -18.5 83.5t-56.5 73.5q-24 19 -51 29.5t-54 15t-53.5 5t-50.5 0.5h-88v207h305v80h-403v-700zM193 333h126q8 0 20 -0.5t25.5 -3.5t27 -8.5t25.5 -15.5t26 -33t14 -68q0 -35 -10 -55t-19 -30
q-16 -17 -43 -28t-59 -11h-133v253z" />
    <glyph glyph-name="afii10019" unicode="&#xc2;" horiz-adv-x="633" 
d="M95 700v-700h224q19 0 41.5 1.5t46.5 7t47.5 15.5t44.5 27q34 28 51.5 68t17.5 82q0 23 -7.5 52.5t-30.5 58.5q-11 13 -30 29t-51 27v4q14 6 32.5 18.5t35.5 36.5q29 43 29 101q0 42 -17 74.5t-43 52.5q-20 16 -44 25t-48 13.5t-45 5.5t-35 1h-219zM193 620h132
q24 0 47.5 -6t38.5 -19q14 -11 22.5 -32.5t8.5 -50.5q0 -30 -11 -49t-23 -30q-23 -20 -49.5 -24t-46.5 -4h-119v215zM193 325h129q7 0 20 -0.5t27.5 -4t29.5 -10.5t28 -19q12 -12 18.5 -25.5t10 -26t4 -23.5t0.5 -17q0 -14 -4.5 -38.5t-23.5 -45.5q-22 -24 -48.5 -29.5
t-54.5 -5.5h-136v245z" />
    <glyph glyph-name="afii10019" unicode="&#x412;" horiz-adv-x="633" 
d="M95 700v-700h224q19 0 41.5 1.5t46.5 7t47.5 15.5t44.5 27q34 28 51.5 68t17.5 82q0 23 -7.5 52.5t-30.5 58.5q-11 13 -30 29t-51 27v4q14 6 32.5 18.5t35.5 36.5q29 43 29 101q0 42 -17 74.5t-43 52.5q-20 16 -44 25t-48 13.5t-45 5.5t-35 1h-219zM193 620h132
q24 0 47.5 -6t38.5 -19q14 -11 22.5 -32.5t8.5 -50.5q0 -30 -11 -49t-23 -30q-23 -20 -49.5 -24t-46.5 -4h-119v215zM193 325h129q7 0 20 -0.5t27.5 -4t29.5 -10.5t28 -19q12 -12 18.5 -25.5t10 -26t4 -23.5t0.5 -17q0 -14 -4.5 -38.5t-23.5 -45.5q-22 -24 -48.5 -29.5
t-54.5 -5.5h-136v245z" />
    <glyph glyph-name="afii10020" unicode="&#xc3;" horiz-adv-x="509" 
d="M95 700v-700h98v620h296v80h-394z" />
    <glyph glyph-name="afii10020" unicode="&#x413;" horiz-adv-x="509" 
d="M95 700v-700h98v620h296v80h-394z" />
    <glyph glyph-name="afii10021" unicode="&#xc4;" horiz-adv-x="649" 
d="M540 700h-369l-4 -151q-2 -50 -4.5 -91t-7 -78t-12 -71t-18.5 -69q-17 -55 -36 -92t-39 -68h-50v-233h94v153h436v-153h94v233h-84v620zM442 80h-292q20 35 39 77t31 88q5 20 17 84.5t17 188.5l4 102h184v-540z" />
    <glyph glyph-name="afii10021" unicode="&#x414;" horiz-adv-x="649" 
d="M540 700h-369l-4 -151q-2 -50 -4.5 -91t-7 -78t-12 -71t-18.5 -69q-17 -55 -36 -92t-39 -68h-50v-233h94v153h436v-153h94v233h-84v620zM442 80h-292q20 35 39 77t31 88q5 20 17 84.5t17 188.5l4 102h184v-540z" />
    <glyph glyph-name="afii10022" unicode="&#xc5;" horiz-adv-x="528" 
d="M458 700h-363v-700h398v80h-300v249h265v80h-265v211h265v80z" />
    <glyph glyph-name="afii10022" unicode="&#x415;" horiz-adv-x="528" 
d="M458 700h-363v-700h398v80h-300v249h265v80h-265v211h265v80z" />
    <glyph glyph-name="afii10024" unicode="&#xc6;" horiz-adv-x="890" 
d="M494 700h-98v-290h-39q-29 0 -48 7.5t-31 19.5t-19 27.5t-12 32.5l-36 109q-4 13 -9 26.5t-12.5 26.5t-18.5 24t-27 18q-25 11 -57 11q-15 0 -31 -3t-25 -5l12 -78q8 4 14.5 5t14.5 1q5 0 12.5 -1.5t15.5 -6.5q8 -6 13.5 -15t9.5 -19.5t7 -21t6 -18.5l25 -74
q4 -13 10.5 -28t16.5 -29t25 -25t37 -17v-5q-26 -6 -44.5 -18t-31.5 -27t-21.5 -31t-14.5 -31l-113 -265h110l97 229q11 25 20 44t22 30q17 14 40.5 20.5t45.5 6.5h36v-330h98v330h36q22 0 45.5 -6.5t40.5 -20.5q13 -11 22 -30t20 -44l97 -229h110l-113 265q-6 15 -14.5 31
t-21.5 31t-31.5 27t-44.5 18v5q22 6 37 17t25 25t16 29t11 28l25 74q3 8 6 18.5t7 21t9.5 19.5t13.5 15q8 5 15.5 6.5t12.5 1.5q8 0 14.5 -1t14.5 -5l12 78q-9 2 -25 5t-31 3q-32 0 -57 -11q-16 -7 -27 -18t-18.5 -24t-12.5 -26.5t-9 -26.5l-36 -109q-5 -17 -12 -32.5
t-19 -27.5t-31 -19.5t-48 -7.5h-39v290z" />
    <glyph glyph-name="afii10024" unicode="&#x416;" horiz-adv-x="890" 
d="M494 700h-98v-290h-39q-29 0 -48 7.5t-31 19.5t-19 27.5t-12 32.5l-36 109q-4 13 -9 26.5t-12.5 26.5t-18.5 24t-27 18q-25 11 -57 11q-15 0 -31 -3t-25 -5l12 -78q8 4 14.5 5t14.5 1q5 0 12.5 -1.5t15.5 -6.5q8 -6 13.5 -15t9.5 -19.5t7 -21t6 -18.5l25 -74
q4 -13 10.5 -28t16.5 -29t25 -25t37 -17v-5q-26 -6 -44.5 -18t-31.5 -27t-21.5 -31t-14.5 -31l-113 -265h110l97 229q11 25 20 44t22 30q17 14 40.5 20.5t45.5 6.5h36v-330h98v330h36q22 0 45.5 -6.5t40.5 -20.5q13 -11 22 -30t20 -44l97 -229h110l-113 265q-6 15 -14.5 31
t-21.5 31t-31.5 27t-44.5 18v5q22 6 37 17t25 25t16 29t11 28l25 74q3 8 6 18.5t7 21t9.5 19.5t13.5 15q8 5 15.5 6.5t12.5 1.5q8 0 14.5 -1t14.5 -5l12 78q-9 2 -25 5t-31 3q-32 0 -57 -11q-16 -7 -27 -18t-18.5 -24t-12.5 -26.5t-9 -26.5l-36 -109q-5 -17 -12 -32.5
t-19 -27.5t-31 -19.5t-48 -7.5h-39v290z" />
    <glyph glyph-name="afii10025" unicode="&#xc7;" horiz-adv-x="594" 
d="M219 320h54q25 0 56 -3.5t58 -23.5q26 -19 34 -43t8 -52q0 -19 -6.5 -44.5t-29.5 -47.5q-15 -14 -44.5 -26t-80.5 -12q-42 0 -68 8.5t-51 19.5q-18 8 -32 16.5t-31 20.5l-41 -73q17 -12 34.5 -21.5t42.5 -20.5q39 -16 72.5 -23t78.5 -7q22 0 46.5 2t50 8t50.5 18.5
t49 33.5q40 35 55 75.5t15 77.5q0 29 -9.5 57.5t-28.5 50.5q-14 17 -37 30.5t-52 19.5v5q23 11 42 26.5t30 32.5q28 42 28 104q0 48 -19 83t-50.5 57t-72.5 32.5t-84 10.5q-77 0 -124 -18.5t-70.5 -47t-28 -62t3.5 -62.5l89 -8q-2 16 0 37t14 40t37.5 32t69.5 13q19 0 45 -5
t49 -25q21 -19 28 -42t7 -49q0 -15 -4 -35.5t-19 -38.5q-23 -28 -54.5 -34.5t-58.5 -6.5h-51v-80z" />
    <glyph glyph-name="afii10025" unicode="&#x417;" horiz-adv-x="594" 
d="M219 320h54q25 0 56 -3.5t58 -23.5q26 -19 34 -43t8 -52q0 -19 -6.5 -44.5t-29.5 -47.5q-15 -14 -44.5 -26t-80.5 -12q-42 0 -68 8.5t-51 19.5q-18 8 -32 16.5t-31 20.5l-41 -73q17 -12 34.5 -21.5t42.5 -20.5q39 -16 72.5 -23t78.5 -7q22 0 46.5 2t50 8t50.5 18.5
t49 33.5q40 35 55 75.5t15 77.5q0 29 -9.5 57.5t-28.5 50.5q-14 17 -37 30.5t-52 19.5v5q23 11 42 26.5t30 32.5q28 42 28 104q0 48 -19 83t-50.5 57t-72.5 32.5t-84 10.5q-77 0 -124 -18.5t-70.5 -47t-28 -62t3.5 -62.5l89 -8q-2 16 0 37t14 40t37.5 32t69.5 13q19 0 45 -5
t49 -25q21 -19 28 -42t7 -49q0 -15 -4 -35.5t-19 -38.5q-23 -28 -54.5 -34.5t-58.5 -6.5h-51v-80z" />
    <glyph glyph-name="afii10026" unicode="&#xc8;" horiz-adv-x="737" 
d="M642 700h-104l-345 -562v562h-98v-700h104l345 562v-562h98v700z" />
    <glyph glyph-name="afii10026" unicode="&#x418;" horiz-adv-x="737" 
d="M642 700h-104l-345 -562v562h-98v-700h104l345 562v-562h98v700z" />
    <glyph glyph-name="afii10027" unicode="&#xc9;" horiz-adv-x="737" 
d="M642 700h-104l-345 -562v562h-98v-700h104l345 562v-562h98v700zM228 893q-6 -15 -6 -32q0 -53 43 -80q23 -14 51.5 -18.5t51.5 -4.5t51.5 4.5t51.5 18.5q43 27 43 80q0 17 -6 32l-73 -7q1 -7 0.5 -17t-7 -19.5t-20.5 -16t-40 -6.5t-40 6.5t-20.5 16t-7.5 19.5t1 17z" />
    <glyph glyph-name="afii10027" unicode="&#x419;" horiz-adv-x="737" 
d="M642 700h-104l-345 -562v562h-98v-700h104l345 562v-562h98v700zM228 893q-6 -15 -6 -32q0 -53 43 -80q23 -14 51.5 -18.5t51.5 -4.5t51.5 4.5t51.5 18.5q43 27 43 80q0 17 -6 32l-73 -7q1 -7 0.5 -17t-7 -19.5t-20.5 -16t-40 -6.5t-40 6.5t-20.5 16t-7.5 19.5t1 17z" />
    <glyph glyph-name="afii10028" unicode="&#xca;" horiz-adv-x="647" 
d="M193 700h-98v-700h98v330h94q22 0 45.5 -6.5t40.5 -20.5q13 -11 22 -30t20 -44l97 -229h110l-113 265q-6 15 -14.5 31t-21.5 31t-31.5 27t-44.5 18v5q22 6 37 17t25 25t16 29t11 28l25 74q3 8 6 18.5t7 21t9.5 19.5t13.5 15q8 5 15.5 6.5t12.5 1.5q8 0 14.5 -1t14.5 -5
l12 78q-9 2 -25 5t-31 3q-32 0 -57 -11q-16 -7 -27 -18t-18.5 -24t-12.5 -26.5t-9 -26.5l-36 -109q-5 -17 -12 -32.5t-19 -27.5t-31 -19.5t-48 -7.5h-97v290z" />
    <glyph glyph-name="afii10028" unicode="&#x41a;" horiz-adv-x="647" 
d="M193 700h-98v-700h98v330h94q22 0 45.5 -6.5t40.5 -20.5q13 -11 22 -30t20 -44l97 -229h110l-113 265q-6 15 -14.5 31t-21.5 31t-31.5 27t-44.5 18v5q22 6 37 17t25 25t16 29t11 28l25 74q3 8 6 18.5t7 21t9.5 19.5t13.5 15q8 5 15.5 6.5t12.5 1.5q8 0 14.5 -1t14.5 -5
l12 78q-9 2 -25 5t-31 3q-32 0 -57 -11q-16 -7 -27 -18t-18.5 -24t-12.5 -26.5t-9 -26.5l-36 -109q-5 -17 -12 -32.5t-19 -27.5t-31 -19.5t-48 -7.5h-97v290z" />
    <glyph glyph-name="afii10029" unicode="&#xcb;" horiz-adv-x="655" 
d="M462 620v-620h98v700h-387l-3 -123q-1 -33 -2 -70.5t-3 -74.5t-4 -70.5t-5 -57.5q-4 -38 -8.5 -65t-9.5 -45t-9 -28.5t-7 -15.5q-21 -41 -54 -55.5t-63 -16.5l18 -88q51 2 87 17.5t60 40.5q16 17 28 38t19.5 43t12.5 42.5t8 37.5q4 27 8 60t7 67t4.5 66t2.5 56l5 162h197
z" />
    <glyph glyph-name="afii10029" unicode="&#x41b;" horiz-adv-x="655" 
d="M462 620v-620h98v700h-387l-3 -123q-1 -33 -2 -70.5t-3 -74.5t-4 -70.5t-5 -57.5q-4 -38 -8.5 -65t-9.5 -45t-9 -28.5t-7 -15.5q-21 -41 -54 -55.5t-63 -16.5l18 -88q51 2 87 17.5t60 40.5q16 17 28 38t19.5 43t12.5 42.5t8 37.5q4 27 8 60t7 67t4.5 66t2.5 56l5 162h197
z" />
    <glyph glyph-name="afii10030" unicode="&#xcc;" horiz-adv-x="785" 
d="M95 0h90v546l183 -371h41l183 371v-546h98v700h-111l-182 -379l-192 379h-110v-700z" />
    <glyph glyph-name="afii10030" unicode="&#x41c;" horiz-adv-x="785" 
d="M95 0h90v546l183 -371h41l183 371v-546h98v700h-111l-182 -379l-192 379h-110v-700z" />
    <glyph glyph-name="afii10031" unicode="&#xcd;" horiz-adv-x="720" 
d="M625 700h-98v-295h-334v295h-98v-700h98v325h334v-325h98v700z" />
    <glyph glyph-name="afii10031" unicode="&#x41d;" horiz-adv-x="720" 
d="M625 700h-98v-295h-334v295h-98v-700h98v325h334v-325h98v700z" />
    <glyph glyph-name="afii10032" unicode="&#xce;" horiz-adv-x="694" 
d="M347 712q-42 0 -75.5 -8.5t-59.5 -21.5t-44.5 -29t-30.5 -30q-25 -29 -40 -63.5t-23.5 -70.5t-11 -71.5t-2.5 -67.5q0 -33 2.5 -69t11 -72t23.5 -70t40 -63q33 -38 84 -63t126 -25t126 25t84 63q25 29 40 63t23.5 70t11 72t2.5 69q0 32 -2.5 67.5t-11 71.5t-23.5 70.5
t-40 63.5q-12 14 -30.5 30t-44.5 29t-59.5 21.5t-75.5 8.5zM526 312q0 -19 -1.5 -45t-6.5 -53t-15 -53t-28 -46q-16 -18 -46 -34.5t-82 -16.5t-82 16.5t-46 34.5q-18 20 -28 46t-15 53t-6.5 53t-1.5 45v76q0 19 1.5 45t6.5 53t15 53t28 46q16 18 46 34.5t82 16.5t82 -16.5
t46 -34.5q18 -20 28 -46t15 -53t6.5 -53t1.5 -45v-76z" />
    <glyph glyph-name="afii10032" unicode="&#x41e;" horiz-adv-x="694" 
d="M347 712q-42 0 -75.5 -8.5t-59.5 -21.5t-44.5 -29t-30.5 -30q-25 -29 -40 -63.5t-23.5 -70.5t-11 -71.5t-2.5 -67.5q0 -33 2.5 -69t11 -72t23.5 -70t40 -63q33 -38 84 -63t126 -25t126 25t84 63q25 29 40 63t23.5 70t11 72t2.5 69q0 32 -2.5 67.5t-11 71.5t-23.5 70.5
t-40 63.5q-12 14 -30.5 30t-44.5 29t-59.5 21.5t-75.5 8.5zM526 312q0 -19 -1.5 -45t-6.5 -53t-15 -53t-28 -46q-16 -18 -46 -34.5t-82 -16.5t-82 16.5t-46 34.5q-18 20 -28 46t-15 53t-6.5 53t-1.5 45v76q0 19 1.5 45t6.5 53t15 53t28 46q16 18 46 34.5t82 16.5t82 -16.5
t46 -34.5q18 -20 28 -46t15 -53t6.5 -53t1.5 -45v-76z" />
    <glyph glyph-name="afii10033" unicode="&#xcf;" horiz-adv-x="712" 
d="M617 700h-522v-700h98v620h326v-620h98v700z" />
    <glyph glyph-name="afii10033" unicode="&#x41f;" horiz-adv-x="712" 
d="M617 700h-522v-700h98v620h326v-620h98v700z" />
    <glyph glyph-name="afii10034" unicode="&#xd0;" horiz-adv-x="620" 
d="M95 700v-700h98v303h147q53 0 99 17t76 45q29 27 44.5 65t15.5 80q0 37 -17 75.5t-55 67.5q-40 30 -86.5 38.5t-90.5 8.5h-231zM193 620h145q26 0 51.5 -6t42.5 -20q25 -19 31.5 -44t6.5 -47q0 -20 -6.5 -43.5t-26.5 -43.5q-17 -16 -43 -24.5t-56 -8.5h-145v237z" />
    <glyph glyph-name="afii10034" unicode="&#x420;" horiz-adv-x="620" 
d="M95 700v-700h98v303h147q53 0 99 17t76 45q29 27 44.5 65t15.5 80q0 37 -17 75.5t-55 67.5q-40 30 -86.5 38.5t-90.5 8.5h-231zM193 620h145q26 0 51.5 -6t42.5 -20q25 -19 31.5 -44t6.5 -47q0 -20 -6.5 -43.5t-26.5 -43.5q-17 -16 -43 -24.5t-56 -8.5h-145v237z" />
    <glyph glyph-name="afii10035" unicode="&#xd1;" horiz-adv-x="621" 
d="M564 502q5 21 5.5 44.5t-6.5 46t-21.5 43t-39.5 36.5q-35 22 -79.5 31t-86.5 9q-70 0 -118.5 -25t-81.5 -64q-24 -29 -39 -63.5t-23.5 -70.5t-11 -71.5t-2.5 -67.5q0 -33 3 -68.5t12 -70.5t24.5 -69t40.5 -64q45 -52 101 -71t119 -19q42 0 73 7t64 21q43 17 74 37l-37 69
q-21 -13 -37.5 -20.5t-24.5 -10.5q-13 -5 -41.5 -14t-62.5 -9q-45 0 -82 14.5t-60 39.5q-31 34 -44.5 90t-13.5 116v55q0 52 6 88t14 60t16.5 37t13.5 19q18 20 49.5 34.5t68.5 14.5q28 0 57 -9t49 -28t25 -39t5 -40v-24z" />
    <glyph glyph-name="afii10035" unicode="&#x421;" horiz-adv-x="621" 
d="M564 502q5 21 5.5 44.5t-6.5 46t-21.5 43t-39.5 36.5q-35 22 -79.5 31t-86.5 9q-70 0 -118.5 -25t-81.5 -64q-24 -29 -39 -63.5t-23.5 -70.5t-11 -71.5t-2.5 -67.5q0 -33 3 -68.5t12 -70.5t24.5 -69t40.5 -64q45 -52 101 -71t119 -19q42 0 73 7t64 21q43 17 74 37l-37 69
q-21 -13 -37.5 -20.5t-24.5 -10.5q-13 -5 -41.5 -14t-62.5 -9q-45 0 -82 14.5t-60 39.5q-31 34 -44.5 90t-13.5 116v55q0 52 6 88t14 60t16.5 37t13.5 19q18 20 49.5 34.5t68.5 14.5q28 0 57 -9t49 -28t25 -39t5 -40v-24z" />
    <glyph glyph-name="afii10036" unicode="&#xd2;" horiz-adv-x="548" 
d="M323 0v620h210v80h-518v-80h210v-620h98z" />
    <glyph glyph-name="afii10036" unicode="&#x422;" horiz-adv-x="548" 
d="M323 0v620h210v80h-518v-80h210v-620h98z" />
    <glyph glyph-name="afii10037" unicode="&#xd3;" horiz-adv-x="575" 
d="M10 700l257 -518l-14 -33q-17 -39 -38 -58.5t-52 -19.5q-32 0 -61 20l-37 -69q26 -17 49 -25.5t49 -8.5q32 0 59.5 9t47.5 26q25 21 42.5 55t34.5 76l223 546h-93l-122 -310q-5 -12 -9 -21.5t-8 -20t-8 -23t-9 -30.5l-193 405h-118z" />
    <glyph glyph-name="afii10037" unicode="&#x423;" horiz-adv-x="575" 
d="M10 700l257 -518l-14 -33q-17 -39 -38 -58.5t-52 -19.5q-32 0 -61 20l-37 -69q26 -17 49 -25.5t49 -8.5q32 0 59.5 9t47.5 26q25 21 42.5 55t34.5 76l223 546h-93l-122 -310q-5 -12 -9 -21.5t-8 -20t-8 -23t-9 -30.5l-193 405h-118z" />
    <glyph glyph-name="afii10038" unicode="&#xd4;" horiz-adv-x="802" 
d="M450 728h-98v-91h-14q-8 0 -27 -1t-44 -6.5t-53 -16t-55 -29.5q-16 -11 -34 -29.5t-33.5 -45t-26 -62.5t-10.5 -82q0 -47 10.5 -83t26 -63t34 -45.5t33.5 -29.5q27 -19 55 -29.5t53 -16t44 -6.5t27 -1h14v-103h98v103h14q8 0 27 1t44 6.5t53 16t55 29.5q15 11 33.5 29.5
t34 45.5t26 63t10.5 83q0 46 -10.5 82t-26 62.5t-33.5 45t-34 29.5q-27 19 -55 29.5t-53 16t-44 6.5t-27 1h-14v91zM352 561v-394h-17q-51 0 -81.5 15t-46.5 32q-15 16 -24 36t-13.5 40.5t-5.5 40t-1 33.5t1 33.5t5.5 40t13.5 40.5t24 36q16 17 46.5 32t81.5 15h17zM467 561
q51 0 81.5 -15t46.5 -32q15 -16 24 -36t13.5 -40.5t5.5 -40t1 -33.5t-1 -33.5t-5.5 -40t-13.5 -40.5t-24 -36q-16 -17 -46.5 -32t-81.5 -15h-17v394h17z" />
    <glyph glyph-name="afii10038" unicode="&#x424;" horiz-adv-x="802" 
d="M450 728h-98v-91h-14q-8 0 -27 -1t-44 -6.5t-53 -16t-55 -29.5q-16 -11 -34 -29.5t-33.5 -45t-26 -62.5t-10.5 -82q0 -47 10.5 -83t26 -63t34 -45.5t33.5 -29.5q27 -19 55 -29.5t53 -16t44 -6.5t27 -1h14v-103h98v103h14q8 0 27 1t44 6.5t53 16t55 29.5q15 11 33.5 29.5
t34 45.5t26 63t10.5 83q0 46 -10.5 82t-26 62.5t-33.5 45t-34 29.5q-27 19 -55 29.5t-53 16t-44 6.5t-27 1h-14v91zM352 561v-394h-17q-51 0 -81.5 15t-46.5 32q-15 16 -24 36t-13.5 40.5t-5.5 40t-1 33.5t1 33.5t5.5 40t13.5 40.5t24 36q16 17 46.5 32t81.5 15h17zM467 561
q51 0 81.5 -15t46.5 -32q15 -16 24 -36t13.5 -40.5t5.5 -40t1 -33.5t-1 -33.5t-5.5 -40t-13.5 -40.5t-24 -36q-16 -17 -46.5 -32t-81.5 -15h-17v394h17z" />
    <glyph glyph-name="afii10039" unicode="&#xd5;" horiz-adv-x="609" 
d="M36 700l206 -329l-232 -371h108l132 220q3 6 6.5 12t9 15.5t13 23.5t18.5 35q11 -23 20 -40.5t23 -38.5l141 -227h118l-234 378l198 322h-100l-105 -170q-11 -17 -24 -43t-24 -49q-14 27 -25.5 47.5t-26.5 45.5l-104 169h-118z" />
    <glyph glyph-name="afii10039" unicode="&#x425;" horiz-adv-x="609" 
d="M36 700l206 -329l-232 -371h108l132 220q3 6 6.5 12t9 15.5t13 23.5t18.5 35q11 -23 20 -40.5t23 -38.5l141 -227h118l-234 378l198 322h-100l-105 -170q-11 -17 -24 -43t-24 -49q-14 27 -25.5 47.5t-26.5 45.5l-104 169h-118z" />
    <glyph glyph-name="afii10040" unicode="&#xd6;" horiz-adv-x="701" 
d="M497 700v-620h-304v620h-98v-700h487v-153h94v233h-81v620h-98z" />
    <glyph glyph-name="afii10040" unicode="&#x426;" horiz-adv-x="701" 
d="M497 700v-620h-304v620h-98v-700h487v-153h94v233h-81v620h-98z" />
    <glyph glyph-name="afii10041" unicode="&#xd7;" horiz-adv-x="653" 
d="M558 700h-98v-309q-43 -16 -78.5 -21t-66.5 -5q-21 0 -50.5 4t-55.5 23q-29 22 -35 48t-6 55v205h-98v-203q0 -20 1.5 -41t8.5 -42.5t19.5 -42.5t35.5 -39q21 -17 45 -26.5t47.5 -14t45 -5.5t36.5 -1q37 0 73 6t78 20v-311h98v700z" />
    <glyph glyph-name="afii10041" unicode="&#x427;" horiz-adv-x="653" 
d="M558 700h-98v-309q-43 -16 -78.5 -21t-66.5 -5q-21 0 -50.5 4t-55.5 23q-29 22 -35 48t-6 55v205h-98v-203q0 -20 1.5 -41t8.5 -42.5t19.5 -42.5t35.5 -39q21 -17 45 -26.5t47.5 -14t45 -5.5t36.5 -1q37 0 73 6t78 20v-311h98v700z" />
    <glyph glyph-name="afii10042" unicode="&#xd8;" horiz-adv-x="910" 
d="M95 700v-700h720v700h-98v-620h-213v620h-98v-620h-213v620h-98z" />
    <glyph glyph-name="afii10042" unicode="&#x428;" horiz-adv-x="910" 
d="M95 700v-700h720v700h-98v-620h-213v620h-98v-620h-213v620h-98z" />
    <glyph glyph-name="afii10043" unicode="&#xd9;" horiz-adv-x="907" 
d="M788 0v-153h94v233h-81v620h-98v-620h-206v620h-98v-620h-206v620h-98v-700h693z" />
    <glyph glyph-name="afii10043" unicode="&#x429;" horiz-adv-x="907" 
d="M788 0v-153h94v233h-81v620h-98v-620h-206v620h-98v-620h-206v620h-98v-700h693z" />
    <glyph glyph-name="afii10044" unicode="&#xda;" horiz-adv-x="679" 
d="M268 421v279h-263v-80h165v-620h194q23 0 49 2t52.5 9t53 19.5t49.5 33.5q35 31 50.5 71.5t15.5 78.5q0 44 -19 85.5t-57 71.5q-25 19 -51.5 29.5t-53 15t-52.5 5t-50 0.5h-83zM268 341h121q66 0 101.5 -34.5t35.5 -94.5q0 -27 -8.5 -51t-25 -42t-41 -28.5t-55.5 -10.5
h-128v261z" />
    <glyph glyph-name="afii10044" unicode="&#x42a;" horiz-adv-x="679" 
d="M268 421v279h-263v-80h165v-620h194q23 0 49 2t52.5 9t53 19.5t49.5 33.5q35 31 50.5 71.5t15.5 78.5q0 44 -19 85.5t-57 71.5q-25 19 -51.5 29.5t-53 15t-52.5 5t-50 0.5h-83zM268 341h121q66 0 101.5 -34.5t35.5 -94.5q0 -27 -8.5 -51t-25 -42t-41 -28.5t-55.5 -10.5
h-128v261z" />
    <glyph glyph-name="afii10045" unicode="&#xdb;" horiz-adv-x="863" 
d="M95 0h194q23 0 49 2t52.5 9t53 19.5t49.5 33.5q35 31 50.5 71.5t15.5 78.5q0 44 -19 85.5t-57 71.5q-25 19 -51.5 29.5t-53 15t-52.5 5t-50 0.5h-83v279h-98v-700zM193 341h121q66 0 101.5 -34.5t35.5 -94.5q0 -27 -8.5 -51t-25 -42t-41 -28.5t-55.5 -10.5h-128v261z
M670 0h98v700h-98v-700z" />
    <glyph glyph-name="afii10045" unicode="&#x42b;" horiz-adv-x="863" 
d="M95 0h194q23 0 49 2t52.5 9t53 19.5t49.5 33.5q35 31 50.5 71.5t15.5 78.5q0 44 -19 85.5t-57 71.5q-25 19 -51.5 29.5t-53 15t-52.5 5t-50 0.5h-83v279h-98v-700zM193 341h121q66 0 101.5 -34.5t35.5 -94.5q0 -27 -8.5 -51t-25 -42t-41 -28.5t-55.5 -10.5h-128v261z
M670 0h98v700h-98v-700z" />
    <glyph glyph-name="afii10046" unicode="&#xdc;" horiz-adv-x="604" 
d="M95 0h194q23 0 49 2t52.5 9t53 19.5t49.5 33.5q35 31 50.5 71.5t15.5 78.5q0 44 -19 85.5t-57 71.5q-25 19 -51.5 29.5t-53 15t-52.5 5t-50 0.5h-83v279h-98v-700zM193 341h121q66 0 101.5 -34.5t35.5 -94.5q0 -27 -8.5 -51t-25 -42t-41 -28.5t-55.5 -10.5h-128v261z" />
    <glyph glyph-name="afii10046" unicode="&#x42c;" horiz-adv-x="604" 
d="M95 0h194q23 0 49 2t52.5 9t53 19.5t49.5 33.5q35 31 50.5 71.5t15.5 78.5q0 44 -19 85.5t-57 71.5q-25 19 -51.5 29.5t-53 15t-52.5 5t-50 0.5h-83v279h-98v-700zM193 341h121q66 0 101.5 -34.5t35.5 -94.5q0 -27 -8.5 -51t-25 -42t-41 -28.5t-55.5 -10.5h-128v261z" />
    <glyph glyph-name="afii10047" unicode="&#xdd;" horiz-adv-x="616" 
d="M144 514q-2 29 5 53t28 41q19 16 47.5 22t55.5 6q28 0 49 -6.5t35.5 -15t22.5 -16.5l11 -11q13 -14 22.5 -35.5t15.5 -46t9 -50t3 -46.5v-9h-248v-80h248v-9q0 -24 -3 -50.5t-10 -51.5t-18 -47.5t-27 -39.5q-23 -25 -60 -39.5t-82 -14.5q-34 0 -62.5 9t-41.5 14
q-8 3 -24.5 10.5t-37.5 20.5l-37 -69q31 -20 74 -37q33 -14 64 -21t73 -7q63 0 119 19t101 71q25 30 40.5 64t24.5 69t12 70.5t3 68.5q0 32 -2.5 67.5t-11 71.5t-23.5 70.5t-39 63.5q-22 27 -47 44t-51.5 27t-52 14t-49.5 4q-41 0 -85.5 -8.5t-78.5 -28.5
q-42 -26 -57.5 -67.5t-3.5 -87.5z" />
    <glyph glyph-name="afii10047" unicode="&#x42d;" horiz-adv-x="616" 
d="M144 514q-2 29 5 53t28 41q19 16 47.5 22t55.5 6q28 0 49 -6.5t35.5 -15t22.5 -16.5l11 -11q13 -14 22.5 -35.5t15.5 -46t9 -50t3 -46.5v-9h-248v-80h248v-9q0 -24 -3 -50.5t-10 -51.5t-18 -47.5t-27 -39.5q-23 -25 -60 -39.5t-82 -14.5q-34 0 -62.5 9t-41.5 14
q-8 3 -24.5 10.5t-37.5 20.5l-37 -69q31 -20 74 -37q33 -14 64 -21t73 -7q63 0 119 19t101 71q25 30 40.5 64t24.5 69t12 70.5t3 68.5q0 32 -2.5 67.5t-11 71.5t-23.5 70.5t-39 63.5q-22 27 -47 44t-51.5 27t-52 14t-49.5 4q-41 0 -85.5 -8.5t-78.5 -28.5
q-42 -26 -57.5 -67.5t-3.5 -87.5z" />
    <glyph glyph-name="afii10048" unicode="&#xde;" horiz-adv-x="952" 
d="M193 405v295h-98v-700h98v325h128q-1 -28 3 -61t13.5 -66.5t24 -65t35.5 -56.5q32 -38 83 -63t125 -25q75 0 126 25t84 63q25 29 40 63t23.5 70t11 72t2.5 69q0 32 -2.5 67.5t-11 71.5t-23.5 70.5t-40 63.5q-12 14 -30.5 30t-44 29t-59.5 21.5t-76 8.5t-75.5 -8.5
t-59 -21.5t-43.5 -29t-30 -30q-19 -22 -32.5 -49.5t-22.5 -56.5t-13.5 -58t-5.5 -54h-130zM784 312q0 -19 -1.5 -45t-6.5 -53t-15 -53t-28 -46q-16 -18 -46 -34.5t-82 -16.5t-82 16.5t-46 34.5q-18 20 -28 46t-15 53t-6.5 53t-1.5 45v76q0 19 1.5 45t6.5 53t15 53t28 46
q16 18 46 34.5t82 16.5t82 -16.5t46 -34.5q18 -20 28 -46t15 -53t6.5 -53t1.5 -45v-76z" />
    <glyph glyph-name="afii10048" unicode="&#x42e;" horiz-adv-x="952" 
d="M193 405v295h-98v-700h98v325h128q-1 -28 3 -61t13.5 -66.5t24 -65t35.5 -56.5q32 -38 83 -63t125 -25q75 0 126 25t84 63q25 29 40 63t23.5 70t11 72t2.5 69q0 32 -2.5 67.5t-11 71.5t-23.5 70.5t-40 63.5q-12 14 -30.5 30t-44 29t-59.5 21.5t-76 8.5t-75.5 -8.5
t-59 -21.5t-43.5 -29t-30 -30q-19 -22 -32.5 -49.5t-22.5 -56.5t-13.5 -58t-5.5 -54h-130zM784 312q0 -19 -1.5 -45t-6.5 -53t-15 -53t-28 -46q-16 -18 -46 -34.5t-82 -16.5t-82 16.5t-46 34.5q-18 20 -28 46t-15 53t-6.5 53t-1.5 45v76q0 19 1.5 45t6.5 53t15 53t28 46
q16 18 46 34.5t82 16.5t82 -16.5t46 -34.5q18 -20 28 -46t15 -53t6.5 -53t1.5 -45v-76z" />
    <glyph glyph-name="afii10049" unicode="&#xdf;" horiz-adv-x="666" 
d="M571 700h-231q-26 0 -51.5 -1t-50.5 -6.5t-49 -16.5t-46 -31q-33 -30 -44 -65t-11 -65q0 -15 5 -39t21 -49t47 -47t82 -32v-4q-21 -7 -36 -18t-26.5 -26t-20.5 -34t-19 -41l-97 -225h110l90 212q12 29 21.5 47.5t21.5 29.5q19 17 42 21.5t45 4.5h99v-315h98v700zM473 620
v-225h-143q-32 0 -57.5 8.5t-42.5 23.5q-23 20 -28.5 43.5t-5.5 43.5q0 14 6.5 38t32.5 43q20 14 47 19.5t48 5.5h143z" />
    <glyph glyph-name="afii10049" unicode="&#x42f;" horiz-adv-x="666" 
d="M571 700h-231q-26 0 -51.5 -1t-50.5 -6.5t-49 -16.5t-46 -31q-33 -30 -44 -65t-11 -65q0 -15 5 -39t21 -49t47 -47t82 -32v-4q-21 -7 -36 -18t-26.5 -26t-20.5 -34t-19 -41l-97 -225h110l90 212q12 29 21.5 47.5t21.5 29.5q19 17 42 21.5t45 4.5h99v-315h98v700zM473 620
v-225h-143q-32 0 -57.5 8.5t-42.5 23.5q-23 20 -28.5 43.5t-5.5 43.5q0 14 6.5 38t32.5 43q20 14 47 19.5t48 5.5h143z" />
    <glyph glyph-name="afii10065" unicode="&#xe0;" horiz-adv-x="510" 
d="M360 0h80v314q0 36 -4.5 72t-33.5 65q-16 16 -37 25t-42 13.5t-38.5 5.5t-26.5 1q-12 0 -30 -1t-38.5 -4t-41 -9.5t-36.5 -17.5q-20 -14 -34 -38t-4 -64l80 -4q0 18 5 32.5t22 25.5q16 11 37.5 13.5t34.5 2.5q7 0 17 -0.5t21 -3t21.5 -7t18.5 -11.5q14 -14 17.5 -29
t3.5 -32v-63h-76q-41 0 -70 -4.5t-50 -10.5t-34 -13t-20 -13q-18 -14 -35 -41.5t-17 -71.5q0 -42 15.5 -67t29.5 -38q27 -24 57 -30.5t59 -6.5q27 0 47.5 4t43.5 16q21 11 33.5 24t20.5 26h4v-60zM352 122q-9 -15 -19.5 -25t-24.5 -19q-18 -12 -33.5 -17t-38.5 -5
q-18 0 -35 4t-32 17q-14 12 -19.5 26.5t-5.5 31.5q0 26 8.5 42t18.5 24q12 11 35.5 18t65.5 7h80v-104z" />
    <glyph glyph-name="afii10065" unicode="&#x430;" horiz-adv-x="510" 
d="M360 0h80v314q0 36 -4.5 72t-33.5 65q-16 16 -37 25t-42 13.5t-38.5 5.5t-26.5 1q-12 0 -30 -1t-38.5 -4t-41 -9.5t-36.5 -17.5q-20 -14 -34 -38t-4 -64l80 -4q0 18 5 32.5t22 25.5q16 11 37.5 13.5t34.5 2.5q7 0 17 -0.5t21 -3t21.5 -7t18.5 -11.5q14 -14 17.5 -29
t3.5 -32v-63h-76q-41 0 -70 -4.5t-50 -10.5t-34 -13t-20 -13q-18 -14 -35 -41.5t-17 -71.5q0 -42 15.5 -67t29.5 -38q27 -24 57 -30.5t59 -6.5q27 0 47.5 4t43.5 16q21 11 33.5 24t20.5 26h4v-60zM352 122q-9 -15 -19.5 -25t-24.5 -19q-18 -12 -33.5 -17t-38.5 -5
q-18 0 -35 4t-32 17q-14 12 -19.5 26.5t-5.5 31.5q0 26 8.5 42t18.5 24q12 11 35.5 18t65.5 7h80v-104z" />
    <glyph glyph-name="afii10066" unicode="&#xe1;" horiz-adv-x="544" 
d="M396 739l-1 -7q-3 -23 -20 -32t-55 -17l-42 -9q-28 -6 -65 -16t-69 -36q-26 -22 -40 -49.5t-22 -55.5q-13 -47 -17.5 -104t-4.5 -123q0 -24 1 -54.5t6.5 -63t17.5 -63.5t35 -56q23 -26 63 -44.5t94 -18.5t93.5 18.5t63.5 44.5q19 20 30.5 44t18 49t9 50t2.5 47
q0 76 -18.5 121.5t-38.5 68.5q-8 10 -21 21t-30.5 20.5t-41 15.5t-52.5 6q-23 0 -47.5 -5t-46.5 -16t-40 -30t-29 -46h-7q1 21 4.5 43t9.5 42t15 37.5t20 28.5t24.5 18t28 12t27.5 8t24 5l70 15q40 8 61 18t29 15q16 10 28 30t13 68h-80zM396 201q0 -29 -6 -59t-29 -55
q-11 -11 -31 -22t-53 -11t-53 11t-31 22q-23 25 -29 55t-6 59v84q0 29 6 59t29 55q11 11 31 22t53 11t53 -11t31 -22q23 -25 29 -55t6 -59v-84z" />
    <glyph glyph-name="afii10066" unicode="&#x431;" horiz-adv-x="544" 
d="M396 739l-1 -7q-3 -23 -20 -32t-55 -17l-42 -9q-28 -6 -65 -16t-69 -36q-26 -22 -40 -49.5t-22 -55.5q-13 -47 -17.5 -104t-4.5 -123q0 -24 1 -54.5t6.5 -63t17.5 -63.5t35 -56q23 -26 63 -44.5t94 -18.5t93.5 18.5t63.5 44.5q19 20 30.5 44t18 49t9 50t2.5 47
q0 76 -18.5 121.5t-38.5 68.5q-8 10 -21 21t-30.5 20.5t-41 15.5t-52.5 6q-23 0 -47.5 -5t-46.5 -16t-40 -30t-29 -46h-7q1 21 4.5 43t9.5 42t15 37.5t20 28.5t24.5 18t28 12t27.5 8t24 5l70 15q40 8 61 18t29 15q16 10 28 30t13 68h-80zM396 201q0 -29 -6 -59t-29 -55
q-11 -11 -31 -22t-53 -11t-53 11t-31 22q-23 25 -29 55t-6 59v84q0 29 6 59t29 55q11 11 31 22t53 11t53 -11t31 -22q23 -25 29 -55t6 -59v-84z" />
    <glyph glyph-name="afii10067" unicode="&#xe2;" horiz-adv-x="519" 
d="M77 0h220q27 0 63 7t66 34q22 20 32.5 45.5t10.5 53.5q0 47 -27 77q-12 14 -29.5 23.5t-34.5 14.5v3q14 3 27 11.5t26 26.5q11 17 16.5 35.5t5.5 35.5q0 28 -10.5 48.5t-25.5 34.5q-14 12 -30 19.5t-32 11t-30 4.5t-24 1h-224v-486zM165 422h117q11 0 27 -2.5t31 -13.5
t20 -25t5 -29q0 -14 -4 -28t-18 -25q-15 -13 -32.5 -15.5t-33.5 -2.5h-112v141zM165 217h125q38 0 61 -18q14 -11 19.5 -26.5t5.5 -33.5q0 -21 -7.5 -34.5t-15.5 -20.5q-11 -10 -29 -15t-39 -5h-120v153z" />
    <glyph glyph-name="afii10067" unicode="&#x432;" horiz-adv-x="519" 
d="M77 0h220q27 0 63 7t66 34q22 20 32.5 45.5t10.5 53.5q0 47 -27 77q-12 14 -29.5 23.5t-34.5 14.5v3q14 3 27 11.5t26 26.5q11 17 16.5 35.5t5.5 35.5q0 28 -10.5 48.5t-25.5 34.5q-14 12 -30 19.5t-32 11t-30 4.5t-24 1h-224v-486zM165 422h117q11 0 27 -2.5t31 -13.5
t20 -25t5 -29q0 -14 -4 -28t-18 -25q-15 -13 -32.5 -15.5t-33.5 -2.5h-112v141zM165 217h125q38 0 61 -18q14 -11 19.5 -26.5t5.5 -33.5q0 -21 -7.5 -34.5t-15.5 -20.5q-11 -10 -29 -15t-39 -5h-120v153z" />
    <glyph glyph-name="afii10068" unicode="&#xe3;" horiz-adv-x="394" 
d="M77 486v-486h88v416h224v70h-312z" />
    <glyph glyph-name="afii10068" unicode="&#x433;" horiz-adv-x="394" 
d="M77 486v-486h88v416h224v70h-312z" />
    <glyph glyph-name="afii10069" unicode="&#xe4;" horiz-adv-x="518" 
d="M429 486h-292l-2 -101q-2 -64 -5.5 -99t-7.5 -52q-11 -57 -33.5 -97t-44.5 -67h-39v-201h85v131h318v-131h85v201h-64v416zM341 416v-346h-209q16 21 30.5 49.5t25.5 64.5q8 26 13.5 66t7.5 107l2 59h130z" />
    <glyph glyph-name="afii10069" unicode="&#x434;" horiz-adv-x="518" 
d="M429 486h-292l-2 -101q-2 -64 -5.5 -99t-7.5 -52q-11 -57 -33.5 -97t-44.5 -67h-39v-201h85v131h318v-131h85v201h-64v416zM341 416v-346h-209q16 21 30.5 49.5t25.5 64.5q8 26 13.5 66t7.5 107l2 59h130z" />
    <glyph glyph-name="afii10070" unicode="&#xe5;" horiz-adv-x="492" 
d="M148 222h300v22q0 59 -7.5 107t-43.5 87q-24 26 -60 42t-83 16q-51 0 -88 -19t-60 -45q-19 -22 -30 -46t-17 -48t-7.5 -46.5t-1.5 -40.5q0 -21 2 -45.5t8 -50t17.5 -50t30.5 -45.5q25 -28 67.5 -49t103.5 -21q27 0 55.5 4.5t58.5 15.5q16 6 32 14t27 14l-28 57
q-12 -6 -25.5 -12t-30.5 -11q-20 -6 -37.5 -9t-38.5 -3q-35 0 -64 10.5t-46 29.5q-12 13 -23 39t-11 70v13zM148 286v11q0 42 10.5 66.5t21.5 36.5q10 11 27.5 21.5t45.5 10.5q20 0 37.5 -5t31.5 -19q24 -23 28 -49.5t4 -52.5v-20h-206z" />
    <glyph glyph-name="afii10070" unicode="&#x435;" horiz-adv-x="492" 
d="M148 222h300v22q0 59 -7.5 107t-43.5 87q-24 26 -60 42t-83 16q-51 0 -88 -19t-60 -45q-19 -22 -30 -46t-17 -48t-7.5 -46.5t-1.5 -40.5q0 -21 2 -45.5t8 -50t17.5 -50t30.5 -45.5q25 -28 67.5 -49t103.5 -21q27 0 55.5 4.5t58.5 15.5q16 6 32 14t27 14l-28 57
q-12 -6 -25.5 -12t-30.5 -11q-20 -6 -37.5 -9t-38.5 -3q-35 0 -64 10.5t-46 29.5q-12 13 -23 39t-11 70v13zM148 286v11q0 42 10.5 66.5t21.5 36.5q10 11 27.5 21.5t45.5 10.5q20 0 37.5 -5t31.5 -19q24 -23 28 -49.5t4 -52.5v-20h-206z" />
    <glyph glyph-name="afii10072" unicode="&#xe6;" horiz-adv-x="684" 
d="M386 486h-88v-193h-26q-13 0 -29 2.5t-29 14.5q-10 9 -16 22t-10 24l-19 56q-7 20 -13.5 33.5t-14 22t-15 13.5t-15.5 8q-17 7 -37 7q-26 0 -51 -11l13 -66q8 5 14.5 6t11.5 1t10 -1t10 -6q3 -3 7.5 -10t9.5 -21l16 -47q5 -14 10.5 -27.5t19.5 -27.5q20 -20 46 -25v-3
q-31 -4 -55 -27q-5 -5 -15.5 -18t-20.5 -34l-80 -179h93l69 153q7 16 14 30t21 25q13 10 26 12.5t26 2.5h29v-223h88v223h29q13 0 26 -2.5t26 -12.5q14 -11 21 -25t14 -30l69 -153h93l-80 179q-10 21 -20.5 34t-15.5 18q-24 23 -55 27v3q26 5 46 25q14 14 19.5 27.5
t10.5 27.5l16 47q5 14 9.5 21t7.5 10q5 5 10 6t10 1t11.5 -1t14.5 -6l13 66q-25 11 -51 11q-20 0 -37 -7q-8 -3 -15.5 -8t-15 -13.5t-14 -22t-13.5 -33.5l-19 -56q-4 -11 -10 -24t-16 -22q-13 -12 -29 -14.5t-29 -2.5h-26v193z" />
    <glyph glyph-name="afii10072" unicode="&#x436;" horiz-adv-x="684" 
d="M386 486h-88v-193h-26q-13 0 -29 2.5t-29 14.5q-10 9 -16 22t-10 24l-19 56q-7 20 -13.5 33.5t-14 22t-15 13.5t-15.5 8q-17 7 -37 7q-26 0 -51 -11l13 -66q8 5 14.5 6t11.5 1t10 -1t10 -6q3 -3 7.5 -10t9.5 -21l16 -47q5 -14 10.5 -27.5t19.5 -27.5q20 -20 46 -25v-3
q-31 -4 -55 -27q-5 -5 -15.5 -18t-20.5 -34l-80 -179h93l69 153q7 16 14 30t21 25q13 10 26 12.5t26 2.5h29v-223h88v223h29q13 0 26 -2.5t26 -12.5q14 -11 21 -25t14 -30l69 -153h93l-80 179q-10 21 -20.5 34t-15.5 18q-24 23 -55 27v3q26 5 46 25q14 14 19.5 27.5
t10.5 27.5l16 47q5 14 9.5 21t7.5 10q5 5 10 6t10 1t11.5 -1t14.5 -6l13 66q-25 11 -51 11q-20 0 -37 -7q-8 -3 -15.5 -8t-15 -13.5t-14 -22t-13.5 -33.5l-19 -56q-4 -11 -10 -24t-16 -22q-13 -12 -29 -14.5t-29 -2.5h-26v193z" />
    <glyph glyph-name="afii10073" unicode="&#xe7;" horiz-adv-x="464" 
d="M160 213h61q20 0 39.5 -2.5t36.5 -14.5q27 -18 27 -53q0 -20 -7.5 -34.5t-17.5 -23.5t-22.5 -14t-25 -7.5t-23 -3t-16.5 -0.5q-13 0 -37.5 2.5t-56.5 13.5q-26 9 -51 23l-32 -62q15 -9 29 -15t33 -12q27 -9 53.5 -14.5t64.5 -5.5q45 0 85 10t73 40q26 24 36 50t10 49
q0 13 -3.5 29.5t-13.5 32.5t-28 29.5t-46 20.5v3q32 11 51 43t19 70q0 20 -5 36t-13 28t-17.5 20.5t-17.5 14.5q-26 18 -60 24t-65 6q-29 0 -66.5 -6.5t-63.5 -23.5q-19 -13 -32.5 -36.5t-4.5 -62.5l77 -4q-3 20 5.5 34t20.5 22q21 13 59 13q14 0 31.5 -2.5t32.5 -14.5
q16 -12 21.5 -29t5.5 -34q0 -10 -3.5 -22.5t-11.5 -21.5t-18.5 -14.5t-22 -8.5t-23 -3.5t-19.5 -0.5h-48v-68z" />
    <glyph glyph-name="afii10073" unicode="&#x437;" horiz-adv-x="464" 
d="M160 213h61q20 0 39.5 -2.5t36.5 -14.5q27 -18 27 -53q0 -20 -7.5 -34.5t-17.5 -23.5t-22.5 -14t-25 -7.5t-23 -3t-16.5 -0.5q-13 0 -37.5 2.5t-56.5 13.5q-26 9 -51 23l-32 -62q15 -9 29 -15t33 -12q27 -9 53.5 -14.5t64.5 -5.5q45 0 85 10t73 40q26 24 36 50t10 49
q0 13 -3.5 29.5t-13.5 32.5t-28 29.5t-46 20.5v3q32 11 51 43t19 70q0 20 -5 36t-13 28t-17.5 20.5t-17.5 14.5q-26 18 -60 24t-65 6q-29 0 -66.5 -6.5t-63.5 -23.5q-19 -13 -32.5 -36.5t-4.5 -62.5l77 -4q-3 20 5.5 34t20.5 22q21 13 59 13q14 0 31.5 -2.5t32.5 -14.5
q16 -12 21.5 -29t5.5 -34q0 -10 -3.5 -22.5t-11.5 -21.5t-18.5 -14.5t-22 -8.5t-23 -3.5t-19.5 -0.5h-48v-68z" />
    <glyph glyph-name="afii10074" unicode="&#xe8;" horiz-adv-x="578" 
d="M501 486h-94l-242 -375v375h-88v-486h94l242 375v-375h88v486z" />
    <glyph glyph-name="afii10074" unicode="&#x438;" horiz-adv-x="578" 
d="M501 486h-94l-242 -375v375h-88v-486h94l242 375v-375h88v486z" />
    <glyph glyph-name="afii10075" unicode="&#xe9;" horiz-adv-x="578" 
d="M501 486h-94l-242 -375v375h-88v-486h94l242 375v-375h88v486zM158 692q-3 -9 -4 -17t-1 -17q0 -21 8.5 -41.5t34.5 -35.5q20 -11 46 -15.5t47 -4.5t47 4.5t46 15.5q26 15 34.5 35.5t8.5 41.5q0 9 -1 17t-4 17l-70 -6q5 -17 0.5 -31t-15.5 -22q-9 -7 -22 -9.5t-24 -2.5
t-24 2.5t-22 9.5q-11 8 -15.5 22t0.5 31z" />
    <glyph glyph-name="afii10075" unicode="&#x439;" horiz-adv-x="578" 
d="M501 486h-94l-242 -375v375h-88v-486h94l242 375v-375h88v486zM158 692q-3 -9 -4 -17t-1 -17q0 -21 8.5 -41.5t34.5 -35.5q20 -11 46 -15.5t47 -4.5t47 4.5t46 15.5q26 15 34.5 35.5t8.5 41.5q0 9 -1 17t-4 17l-70 -6q5 -17 0.5 -31t-15.5 -22q-9 -7 -22 -9.5t-24 -2.5
t-24 2.5t-22 9.5q-11 8 -15.5 22t0.5 31z" />
    <glyph glyph-name="afii10076" unicode="&#xea;" horiz-adv-x="515" 
d="M165 486h-88v-486h88v223h71q13 0 26 -2.5t26 -12.5q14 -11 21 -25t14 -30l69 -153h98l-80 179q-1 2 -10 19.5t-25 32.5q-24 22 -54 27v3q14 4 25 10.5t19 14.5q14 14 19.5 27.5t10.5 27.5l16 47q5 14 9.5 21t7.5 10q5 5 10 6t10 1t11.5 -1t14.5 -6l13 66
q-14 6 -28.5 8.5t-27.5 2.5q-19 0 -37 -7q-8 -3 -15.5 -8t-15 -13.5t-14 -22t-13.5 -33.5l-19 -56q-4 -11 -10 -24t-16 -22q-13 -12 -29 -14.5t-29 -2.5h-68v193z" />
    <glyph glyph-name="afii10076" unicode="&#x43a;" horiz-adv-x="515" 
d="M165 486h-88v-486h88v223h71q13 0 26 -2.5t26 -12.5q14 -11 21 -25t14 -30l69 -153h98l-80 179q-1 2 -10 19.5t-25 32.5q-24 22 -54 27v3q14 4 25 10.5t19 14.5q14 14 19.5 27.5t10.5 27.5l16 47q5 14 9.5 21t7.5 10q5 5 10 6t10 1t11.5 -1t14.5 -6l13 66
q-14 6 -28.5 8.5t-27.5 2.5q-19 0 -37 -7q-8 -3 -15.5 -8t-15 -13.5t-14 -22t-13.5 -33.5l-19 -56q-4 -11 -10 -24t-16 -22q-13 -12 -29 -14.5t-29 -2.5h-68v193z" />
    <glyph glyph-name="afii10077" unicode="&#xeb;" horiz-adv-x="512" 
d="M435 486h-306l-1 -80q0 -11 -0.5 -33.5t-1.5 -49t-1.5 -52t-1.5 -42.5q-1 -18 -2.5 -38t-6 -39.5t-13 -36.5t-22.5 -29t-35 -19t-37 -9l23 -71q23 2 48 9t43 18q21 13 34 30.5t21.5 37.5t12.5 41.5t6 43.5q1 15 3 39.5t3.5 52.5t2.5 55t1 48l1 54h141v-416h88v486z" />
    <glyph glyph-name="afii10077" unicode="&#x43b;" horiz-adv-x="512" 
d="M435 486h-306l-1 -80q0 -11 -0.5 -33.5t-1.5 -49t-1.5 -52t-1.5 -42.5q-1 -18 -2.5 -38t-6 -39.5t-13 -36.5t-22.5 -29t-35 -19t-37 -9l23 -71q23 2 48 9t43 18q21 13 34 30.5t21.5 37.5t12.5 41.5t6 43.5q1 15 3 39.5t3.5 52.5t2.5 55t1 48l1 54h141v-416h88v486z" />
    <glyph glyph-name="afii10078" unicode="&#xec;" horiz-adv-x="632" 
d="M77 0h80v368l140 -254h30l140 254v-368h88v486h-99l-134 -249l-138 249h-107v-486z" />
    <glyph glyph-name="afii10078" unicode="&#x43c;" horiz-adv-x="632" 
d="M77 0h80v368l140 -254h30l140 254v-368h88v486h-99l-134 -249l-138 249h-107v-486z" />
    <glyph glyph-name="afii10079" unicode="&#xed;" horiz-adv-x="550" 
d="M473 486h-88v-197h-220v197h-88v-486h88v219h220v-219h88v486z" />
    <glyph glyph-name="afii10079" unicode="&#x43d;" horiz-adv-x="550" 
d="M473 486h-88v-197h-220v197h-88v-486h88v219h220v-219h88v486z" />
    <glyph glyph-name="afii10080" unicode="&#xee;" horiz-adv-x="524" 
d="M262 496q-54 0 -93.5 -18.5t-63.5 -44.5q-19 -20 -30.5 -44t-18 -49t-9 -50t-2.5 -47t2.5 -47t9 -50t18 -49t30.5 -44q24 -26 63.5 -44.5t93.5 -18.5t93.5 18.5t63.5 44.5q19 20 30.5 44t18 49t9 50t2.5 47t-2.5 47t-9 50t-18 49t-30.5 44q-24 26 -63.5 44.5t-93.5 18.5z
M381 221q0 -35 -4.5 -70.5t-30.5 -63.5q-11 -11 -31 -22t-53 -11t-53 11t-31 22q-26 28 -30.5 63.5t-4.5 70.5v44q0 35 4.5 70.5t30.5 63.5q11 11 31 22t53 11t53 -11t31 -22q26 -28 30.5 -63.5t4.5 -70.5v-44z" />
    <glyph glyph-name="afii10080" unicode="&#x43e;" horiz-adv-x="524" 
d="M262 496q-54 0 -93.5 -18.5t-63.5 -44.5q-19 -20 -30.5 -44t-18 -49t-9 -50t-2.5 -47t2.5 -47t9 -50t18 -49t30.5 -44q24 -26 63.5 -44.5t93.5 -18.5t93.5 18.5t63.5 44.5q19 20 30.5 44t18 49t9 50t2.5 47t-2.5 47t-9 50t-18 49t-30.5 44q-24 26 -63.5 44.5t-93.5 18.5z
M381 221q0 -35 -4.5 -70.5t-30.5 -63.5q-11 -11 -31 -22t-53 -11t-53 11t-31 22q-26 28 -30.5 63.5t-4.5 70.5v44q0 35 4.5 70.5t30.5 63.5q11 11 31 22t53 11t53 -11t31 -22q26 -28 30.5 -63.5t4.5 -70.5v-44z" />
    <glyph glyph-name="afii10081" unicode="&#xef;" horiz-adv-x="538" 
d="M77 486v-486h88v416h208v-416h88v486h-384z" />
    <glyph glyph-name="afii10081" unicode="&#x43f;" horiz-adv-x="538" 
d="M77 486v-486h88v416h208v-416h88v486h-384z" />
    <glyph glyph-name="afii10082" unicode="&#xf0;" horiz-adv-x="531" 
d="M165 -218v239q14 -8 24.5 -12t24.5 -8q17 -5 34.5 -8t41.5 -3q36 0 68.5 12t59.5 40q41 42 52 95t11 106q0 38 -6 86.5t-35 91.5q-28 42 -66 58.5t-74 16.5q-20 0 -42.5 -5t-40.5 -13q-17 -8 -32.5 -19.5t-27.5 -22.5v50h-80v-704h88zM165 376q8 10 18 19t23 17
q20 12 37 16t31 4q22 0 43.5 -9.5t35.5 -25.5q11 -13 17 -30t9 -35t3.5 -36.5t0.5 -34.5v-32q0 -16 -0.5 -33.5t-3.5 -35.5t-8.5 -35t-14.5 -30q-11 -16 -33 -28.5t-60 -12.5q-22 0 -39 5.5t-21 7.5q-21 8 -38 19v290z" />
    <glyph glyph-name="afii10082" unicode="&#x440;" horiz-adv-x="531" 
d="M165 -218v239q14 -8 24.5 -12t24.5 -8q17 -5 34.5 -8t41.5 -3q36 0 68.5 12t59.5 40q41 42 52 95t11 106q0 38 -6 86.5t-35 91.5q-28 42 -66 58.5t-74 16.5q-20 0 -42.5 -5t-40.5 -13q-17 -8 -32.5 -19.5t-27.5 -22.5v50h-80v-704h88zM165 376q8 10 18 19t23 17
q20 12 37 16t31 4q22 0 43.5 -9.5t35.5 -25.5q11 -13 17 -30t9 -35t3.5 -36.5t0.5 -34.5v-32q0 -16 -0.5 -33.5t-3.5 -35.5t-8.5 -35t-14.5 -30q-11 -16 -33 -28.5t-60 -12.5q-22 0 -39 5.5t-21 7.5q-21 8 -38 19v290z" />
    <glyph glyph-name="afii10083" unicode="&#xf1;" horiz-adv-x="484" 
d="M416 95q-12 -6 -25.5 -12t-30.5 -11q-20 -6 -38 -9t-38 -3q-6 0 -18 1t-25.5 4.5t-28 10t-26.5 17.5q-27 26 -32.5 58t-5.5 63v65q0 14 0.5 31.5t4.5 36t13.5 36t28.5 30.5q28 19 70 19q49 0 73 -24q15 -15 17 -35.5t0 -41.5l81 7q11 39 -2.5 75.5t-51.5 56.5
q-23 13 -53.5 19.5t-55.5 6.5q-36 0 -74 -10t-66 -31q-27 -20 -43.5 -47t-25 -56t-11.5 -58t-3 -54q0 -16 2 -40.5t10 -53t23 -57t42 -51.5q35 -30 73.5 -39t70.5 -9q34 0 61 5t53 15q16 6 32 14t27 14z" />
    <glyph glyph-name="afii10083" unicode="&#x441;" horiz-adv-x="484" 
d="M416 95q-12 -6 -25.5 -12t-30.5 -11q-20 -6 -38 -9t-38 -3q-6 0 -18 1t-25.5 4.5t-28 10t-26.5 17.5q-27 26 -32.5 58t-5.5 63v65q0 14 0.5 31.5t4.5 36t13.5 36t28.5 30.5q28 19 70 19q49 0 73 -24q15 -15 17 -35.5t0 -41.5l81 7q11 39 -2.5 75.5t-51.5 56.5
q-23 13 -53.5 19.5t-55.5 6.5q-36 0 -74 -10t-66 -31q-27 -20 -43.5 -47t-25 -56t-11.5 -58t-3 -54q0 -16 2 -40.5t10 -53t23 -57t42 -51.5q35 -30 73.5 -39t70.5 -9q34 0 61 5t53 15q16 6 32 14t27 14z" />
    <glyph glyph-name="afii10084" unicode="&#xf2;" horiz-adv-x="412" 
d="M10 486v-70h152v-416h88v416h152v70h-392z" />
    <glyph glyph-name="afii10084" unicode="&#x442;" horiz-adv-x="412" 
d="M10 486v-70h152v-416h88v416h152v70h-392z" />
    <glyph glyph-name="afii10085" unicode="&#xf3;" horiz-adv-x="453" 
d="M378 486l-88 -277q-5 -14 -8.5 -25t-7.5 -23.5t-8.5 -28t-10.5 -37.5h-4q-2 10 -10 37t-17 49l-123 305h-96l205 -510l-12 -38q-5 -14 -12 -32.5t-14 -27.5q-6 -8 -18.5 -17t-32.5 -9q-12 0 -24 3t-23 10q-13 8 -25 20l-42 -53q8 -8 19 -16t22 -15q19 -11 37.5 -15
t38.5 -4q29 0 53 9.5t43 30.5q16 17 28.5 44t18.5 46l191 574h-80z" />
    <glyph glyph-name="afii10085" unicode="&#x443;" horiz-adv-x="453" 
d="M378 486l-88 -277q-5 -14 -8.5 -25t-7.5 -23.5t-8.5 -28t-10.5 -37.5h-4q-2 10 -10 37t-17 49l-123 305h-96l205 -510l-12 -38q-5 -14 -12 -32.5t-14 -27.5q-6 -8 -18.5 -17t-32.5 -9q-12 0 -24 3t-23 10q-13 8 -25 20l-42 -53q8 -8 19 -16t22 -15q19 -11 37.5 -15
t38.5 -4q29 0 53 9.5t43 30.5q16 17 28.5 44t18.5 46l191 574h-80z" />
    <glyph glyph-name="afii10086" unicode="&#xf4;" horiz-adv-x="686" 
d="M299 700v-232q-20 16 -41.5 22t-38.5 6q-23 0 -52 -10t-57 -42q-20 -23 -32 -47.5t-18 -50.5t-8 -52t-2 -51t2 -51t8 -52t18 -51t32 -47q28 -32 57 -42t55 -10q11 0 23 2.5t22 6.5q16 7 32 19v-236h88v236q15 -12 32 -19q10 -4 22 -6.5t23 -2.5q26 0 55 10t57 42
q20 22 32 47t18 51t8 52t2 51t-2 51t-8 52t-18 50.5t-32 47.5q-28 32 -57 42t-52 10q-17 0 -38.5 -6t-41.5 -22v232h-88zM387 403q2 2 10.5 9t19.5 12q4 2 13 5t21 3q15 0 35.5 -7t35.5 -34q11 -19 14.5 -48.5t4.5 -80.5v-38q-1 -58 -5 -85.5t-13 -43.5q-14 -24 -33.5 -32.5
t-37.5 -8.5q-10 0 -21 3t-19 7q-7 3 -13.5 8.5t-11.5 10.5v320zM299 83q-5 -5 -11.5 -10.5t-13.5 -8.5q-8 -4 -19 -7t-21 -3q-18 0 -37.5 8.5t-33.5 32.5q-9 16 -13 43.5t-5 85.5v38q1 51 4.5 80.5t14.5 48.5q15 27 35.5 34t35.5 7q12 0 21 -3t13 -5q11 -5 19.5 -12t10.5 -9
v-320z" />
    <glyph glyph-name="afii10086" unicode="&#x444;" horiz-adv-x="686" 
d="M299 700v-232q-20 16 -41.5 22t-38.5 6q-23 0 -52 -10t-57 -42q-20 -23 -32 -47.5t-18 -50.5t-8 -52t-2 -51t2 -51t8 -52t18 -51t32 -47q28 -32 57 -42t55 -10q11 0 23 2.5t22 6.5q16 7 32 19v-236h88v236q15 -12 32 -19q10 -4 22 -6.5t23 -2.5q26 0 55 10t57 42
q20 22 32 47t18 51t8 52t2 51t-2 51t-8 52t-18 50.5t-32 47.5q-28 32 -57 42t-52 10q-17 0 -38.5 -6t-41.5 -22v232h-88zM387 403q2 2 10.5 9t19.5 12q4 2 13 5t21 3q15 0 35.5 -7t35.5 -34q11 -19 14.5 -48.5t4.5 -80.5v-38q-1 -58 -5 -85.5t-13 -43.5q-14 -24 -33.5 -32.5
t-37.5 -8.5q-10 0 -21 3t-19 7q-7 3 -13.5 8.5t-11.5 10.5v320zM299 83q-5 -5 -11.5 -10.5t-13.5 -8.5q-8 -4 -19 -7t-21 -3q-18 0 -37.5 8.5t-33.5 32.5q-9 16 -13 43.5t-5 85.5v38q1 51 4.5 80.5t14.5 48.5q15 27 35.5 34t35.5 7q12 0 21 -3t13 -5q11 -5 19.5 -12t10.5 -9
v-320z" />
    <glyph glyph-name="afii10087" unicode="&#xf5;" horiz-adv-x="490" 
d="M462 486h-85l-86 -126q-8 -11 -17 -26.5t-16 -28.5q-8 17 -15 29t-14 22t-13.5 19t-13.5 20l-62 91h-108l158 -230l-180 -256h90l98 141q10 14 21 31.5t20 33.5q11 -23 20 -38t20 -32l93 -136h108l-176 256z" />
    <glyph glyph-name="afii10087" unicode="&#x445;" horiz-adv-x="490" 
d="M462 486h-85l-86 -126q-8 -11 -17 -26.5t-16 -28.5q-8 17 -15 29t-14 22t-13.5 19t-13.5 20l-62 91h-108l158 -230l-180 -256h90l98 141q10 14 21 31.5t20 33.5q11 -23 20 -38t20 -32l93 -136h108l-176 256z" />
    <glyph glyph-name="afii10088" unicode="&#xf6;" horiz-adv-x="548" 
d="M371 486v-416h-206v416h-88v-486h361v-131h85v201h-64v416h-88z" />
    <glyph glyph-name="afii10088" unicode="&#x446;" horiz-adv-x="548" 
d="M371 486v-416h-206v416h-88v-486h361v-131h85v201h-64v416h-88z" />
    <glyph glyph-name="afii10089" unicode="&#xf7;" horiz-adv-x="491" 
d="M414 486h-88v-225q-28 -10 -50 -13t-42 -3q-18 0 -41 3t-38 17q-15 13 -18.5 29t-3.5 27v165h-88v-153q0 -31 7 -61.5t34 -54.5q15 -13 33 -20t36 -10.5t34 -4.5t26 -1q19 0 48.5 3t62.5 13v-197h88v486z" />
    <glyph glyph-name="afii10089" unicode="&#x447;" horiz-adv-x="491" 
d="M414 486h-88v-225q-28 -10 -50 -13t-42 -3q-18 0 -41 3t-38 17q-15 13 -18.5 29t-3.5 27v165h-88v-153q0 -31 7 -61.5t34 -54.5q15 -13 33 -20t36 -10.5t34 -4.5t26 -1q19 0 48.5 3t62.5 13v-197h88v486z" />
    <glyph glyph-name="afii10090" unicode="&#xf8;" horiz-adv-x="750" 
d="M673 0v486h-88v-416h-166v416h-88v-416h-166v416h-88v-486h596z" />
    <glyph glyph-name="afii10090" unicode="&#x448;" horiz-adv-x="750" 
d="M673 0v486h-88v-416h-166v416h-88v-416h-166v416h-88v-486h596z" />
    <glyph glyph-name="afii10091" unicode="&#xf9;" horiz-adv-x="762" 
d="M77 486v-486h575v-131h85v201h-64v416h-88v-416h-166v416h-88v-416h-166v416h-88z" />
    <glyph glyph-name="afii10091" unicode="&#x449;" horiz-adv-x="762" 
d="M77 486v-486h575v-131h85v201h-64v416h-88v-416h-166v416h-88v-416h-166v416h-88z" />
    <glyph glyph-name="afii10092" unicode="&#xfa;" horiz-adv-x="559" 
d="M222 307v179h-217v-70h127v-416h208q54 0 88 13.5t53 30.5q20 18 34 46t14 63q0 33 -13 62t-37 49q-18 15 -38 23.5t-40.5 13t-40 5.5t-35.5 1h-103zM222 237h121q27 0 44 -6.5t25 -14.5q16 -14 20.5 -30t4.5 -33q0 -26 -8 -40t-13 -19q-9 -10 -26.5 -17t-43.5 -7h-124
v167z" />
    <glyph glyph-name="afii10092" unicode="&#x44a;" horiz-adv-x="559" 
d="M222 307v179h-217v-70h127v-416h208q54 0 88 13.5t53 30.5q20 18 34 46t14 63q0 33 -13 62t-37 49q-18 15 -38 23.5t-40.5 13t-40 5.5t-35.5 1h-103zM222 237h121q27 0 44 -6.5t25 -14.5q16 -14 20.5 -30t4.5 -33q0 -26 -8 -40t-13 -19q-9 -10 -26.5 -17t-43.5 -7h-124
v167z" />
    <glyph glyph-name="afii10093" unicode="&#xfb;" horiz-adv-x="720" 
d="M167 307v179h-90v-486h208q54 0 88 13.5t53 30.5q20 18 34 46t14 63q0 33 -13 62t-37 49q-18 15 -38 23.5t-40.5 13t-40 5.5t-35.5 1h-103zM167 237h121q27 0 44 -6.5t25 -14.5q16 -14 20.5 -30t4.5 -33q0 -26 -8 -40t-13 -19q-9 -10 -26.5 -17t-43.5 -7h-124v167z
M555 486v-486h88v486h-88z" />
    <glyph glyph-name="afii10093" unicode="&#x44b;" horiz-adv-x="720" 
d="M167 307v179h-90v-486h208q54 0 88 13.5t53 30.5q20 18 34 46t14 63q0 33 -13 62t-37 49q-18 15 -38 23.5t-40.5 13t-40 5.5t-35.5 1h-103zM167 237h121q27 0 44 -6.5t25 -14.5q16 -14 20.5 -30t4.5 -33q0 -26 -8 -40t-13 -19q-9 -10 -26.5 -17t-43.5 -7h-124v167z
M555 486v-486h88v486h-88z" />
    <glyph glyph-name="afii10094" unicode="&#xfc;" horiz-adv-x="504" 
d="M167 307v179h-90v-486h208q54 0 88 13.5t53 30.5q20 18 34 46t14 63q0 33 -13 62t-37 49q-18 15 -38 23.5t-40.5 13t-40 5.5t-35.5 1h-103zM167 237h121q27 0 44 -6.5t25 -14.5q16 -14 20.5 -30t4.5 -33q0 -26 -8 -40t-13 -19q-9 -10 -26.5 -17t-43.5 -7h-124v167z" />
    <glyph glyph-name="afii10094" unicode="&#x44c;" horiz-adv-x="504" 
d="M167 307v179h-90v-486h208q54 0 88 13.5t53 30.5q20 18 34 46t14 63q0 33 -13 62t-37 49q-18 15 -38 23.5t-40.5 13t-40 5.5t-35.5 1h-103zM167 237h121q27 0 44 -6.5t25 -14.5q16 -14 20.5 -30t4.5 -33q0 -26 -8 -40t-13 -19q-9 -10 -26.5 -17t-43.5 -7h-124v167z" />
    <glyph glyph-name="afii10095" unicode="&#xfd;" horiz-adv-x="494" 
d="M45 36q14 -8 31.5 -16t31.5 -13q24 -9 53 -14t61 -5t73 9.5t77 42.5q23 21 37.5 46t22 51.5t10 52t2.5 48.5q0 84 -21 134t-50 76q-18 16 -37.5 25.5t-38 14.5t-36 6.5t-30.5 1.5q-34 0 -72 -7t-65 -24q-25 -16 -35.5 -39.5t-2.5 -58.5l77 -4q-2 17 4.5 31.5t23.5 24.5
q14 8 32.5 10.5t35.5 2.5q32 0 52 -9.5t31 -21.5q15 -16 24 -44t9 -68v-8h-178v-68h179v-7q0 -29 -5.5 -61t-31.5 -56q-23 -22 -50 -26.5t-45 -4.5q-23 0 -42 3t-42 11q-26 10 -53 24z" />
    <glyph glyph-name="afii10095" unicode="&#x44d;" horiz-adv-x="494" 
d="M45 36q14 -8 31.5 -16t31.5 -13q24 -9 53 -14t61 -5t73 9.5t77 42.5q23 21 37.5 46t22 51.5t10 52t2.5 48.5q0 84 -21 134t-50 76q-18 16 -37.5 25.5t-38 14.5t-36 6.5t-30.5 1.5q-34 0 -72 -7t-65 -24q-25 -16 -35.5 -39.5t-2.5 -58.5l77 -4q-2 17 4.5 31.5t23.5 24.5
q14 8 32.5 10.5t35.5 2.5q32 0 52 -9.5t31 -21.5q15 -16 24 -44t9 -68v-8h-178v-68h179v-7q0 -29 -5.5 -61t-31.5 -56q-23 -22 -50 -26.5t-45 -4.5q-23 0 -42 3t-42 11q-26 10 -53 24z" />
    <glyph glyph-name="afii10096" unicode="&#xfe;" horiz-adv-x="737" 
d="M165 293v193h-88v-486h88v223h93q0 -47 16 -93.5t43 -76.5q23 -26 61 -44.5t92 -18.5t94 18.5t63 44.5q19 20 30.5 44t18 49t9 50t2.5 47t-2.5 47t-9 50t-18 49t-30.5 44q-23 26 -63 44.5t-94 18.5t-92 -18.5t-61 -44.5q-24 -26 -38.5 -64t-17.5 -76h-96zM589 221
q0 -35 -4.5 -70.5t-30.5 -63.5q-11 -11 -31 -22t-53 -11t-53 11t-31 22q-26 28 -30.5 63.5t-4.5 70.5v44q0 35 4.5 70.5t30.5 63.5q11 11 31 22t53 11t53 -11t31 -22q26 -28 30.5 -63.5t4.5 -70.5v-44z" />
    <glyph glyph-name="afii10096" unicode="&#x44e;" horiz-adv-x="737" 
d="M165 293v193h-88v-486h88v223h93q0 -47 16 -93.5t43 -76.5q23 -26 61 -44.5t92 -18.5t94 18.5t63 44.5q19 20 30.5 44t18 49t9 50t2.5 47t-2.5 47t-9 50t-18 49t-30.5 44q-23 26 -63 44.5t-94 18.5t-92 -18.5t-61 -44.5q-24 -26 -38.5 -64t-17.5 -76h-96zM589 221
q0 -35 -4.5 -70.5t-30.5 -63.5q-11 -11 -31 -22t-53 -11t-53 11t-31 22q-26 28 -30.5 63.5t-4.5 70.5v44q0 35 4.5 70.5t30.5 63.5q11 11 31 22t53 11t53 -11t31 -22q26 -28 30.5 -63.5t4.5 -70.5v-44z" />
    <glyph glyph-name="afii10097" unicode="&#xff;" horiz-adv-x="531" 
d="M454 486h-227q-25 0 -53 -6.5t-48 -18.5q-27 -17 -42 -45t-15 -60q0 -24 8.5 -46t22.5 -37q12 -14 32.5 -25.5t46.5 -15.5v-3q-4 -2 -14 -6.5t-21 -13.5q-14 -12 -20 -23.5t-11 -21.5l-78 -164h100l61 136q7 16 15.5 30t21.5 24q14 11 28 13.5t27 2.5h78v-206h88v486z
M366 416v-140h-107q-42 0 -70 16.5t-28 52.5q0 16 5 30.5t20 25.5q16 11 34 13t33 2h113z" />
    <glyph glyph-name="afii10097" unicode="&#x44f;" horiz-adv-x="531" 
d="M454 486h-227q-25 0 -53 -6.5t-48 -18.5q-27 -17 -42 -45t-15 -60q0 -24 8.5 -46t22.5 -37q12 -14 32.5 -25.5t46.5 -15.5v-3q-4 -2 -14 -6.5t-21 -13.5q-14 -12 -20 -23.5t-11 -21.5l-78 -164h100l61 136q7 16 15.5 30t21.5 24q14 11 28 13.5t27 2.5h78v-206h88v486z
M366 416v-140h-107q-42 0 -70 16.5t-28 52.5q0 16 5 30.5t20 25.5q16 11 34 13t33 2h113z" />
    <glyph glyph-name="a" unicode="a" horiz-adv-x="510" 
d="M360 0h80v314q0 36 -4.5 72t-33.5 65q-16 16 -37 25t-42 13.5t-38.5 5.5t-26.5 1q-12 0 -30 -1t-38.5 -4t-41 -9.5t-36.5 -17.5q-20 -14 -34 -38t-4 -64l80 -4q0 18 5 32.5t22 25.5q16 11 37.5 13.5t34.5 2.5q7 0 17 -0.5t21 -3t21.5 -7t18.5 -11.5q14 -14 17.5 -29
t3.5 -32v-63h-76q-41 0 -70 -4.5t-50 -10.5t-34 -13t-20 -13q-18 -14 -35 -41.5t-17 -71.5q0 -42 15.5 -67t29.5 -38q27 -24 57 -30.5t59 -6.5q27 0 47.5 4t43.5 16q21 11 33.5 24t20.5 26h4v-60zM352 122q-9 -15 -19.5 -25t-24.5 -19q-18 -12 -33.5 -17t-38.5 -5
q-18 0 -35 4t-32 17q-14 12 -19.5 26.5t-5.5 31.5q0 26 8.5 42t18.5 24q12 11 35.5 18t65.5 7h80v-104z" />
    </font>
</defs>
</svg>
