<?xml version="1.0" standalone="no"?>
<!DOCTYPE svg PUBLIC "-//W3C//DTD SVG 1.1//EN" "http://www.w3.org/Graphics/SVG/1.1/DTD/svg11.dtd" >
<svg xmlns="http://www.w3.org/2000/svg" xmlns:xlink="http://www.w3.org/1999/xlink" version="1.1">
<metadata>
Created by FontForge 20141024 at Wed Jun  3 14:17:42 2015
 By System Administrator
Copyright (c) ParaType, 1998. All rights reserved.
</metadata>
<defs>
<font id="YanusC-Bold" horiz-adv-x="620" >
  <font-face 
    font-family="YanusCTT"
    font-weight="700"
    font-stretch="normal"
    units-per-em="1000"
    panose-1="2 0 8 4 5 0 0 2 0 4"
    ascent="800"
    descent="-200"
    x-height="494"
    cap-height="700"
    bbox="-400 -305 1201 923"
    underline-thickness="50"
    underline-position="-75"
    unicode-range="U+0001-2122"
  />
<missing-glyph horiz-adv-x="500" 
d="M50 0h400v512h-400v-512zM58 8v496h384v-496h-384z" />
    <glyph glyph-name=".notdef" unicode="&#x201b;" horiz-adv-x="500" 
d="M50 0h400v512h-400v-512zM58 8v496h384v-496h-384z" />
    <glyph glyph-name=".notdef" unicode="&#x201f;" horiz-adv-x="500" 
d="M50 0h400v512h-400v-512zM58 8v496h384v-496h-384z" />
    <glyph glyph-name=".null" horiz-adv-x="0" 
 />
    <glyph glyph-name="nonmarkingreturn" horiz-adv-x="233" 
 />
    <glyph glyph-name="acute" horiz-adv-x="392" 
d="M202 700l-102 -153h85l167 153h-150z" />
    <glyph glyph-name="Acute" horiz-adv-x="392" 
d="M202 886l-102 -145h95l167 145h-160z" />
    <glyph glyph-name="breve" horiz-adv-x="508" 
d="M125 669v-9q0 -21 6 -46t29 -45q14 -12 36.5 -20.5t57.5 -8.5q20 0 46.5 5t47.5 24q23 20 29 45t6 46v9h-73q1 -8 -0.5 -18.5t-6.5 -18.5q-9 -14 -23.5 -17t-25.5 -3t-25.5 3t-23.5 17q-5 8 -6.5 18.5t-0.5 18.5h-73z" />
    <glyph glyph-name="Breve" horiz-adv-x="471" 
d="M100 873v-9q0 -23 5.5 -47.5t31.5 -46.5q24 -20 51.5 -25t47.5 -5q23 0 49.5 5t49.5 25q25 22 30.5 47t5.5 47v9h-76q3 -23 -8 -38q-7 -9 -20 -15t-31 -6q-21 0 -33 6.5t-18 14.5q-12 17 -9 38h-76z" />
    <glyph glyph-name="caron" horiz-adv-x="559" 
d="M122 700l105 -153h104l106 153h-83l-75 -83l-74 83h-83z" />
    <glyph glyph-name="Caron" horiz-adv-x="469" 
d="M77 886l105 -145h104l106 145h-83l-75 -68l-74 68h-83z" />
    <glyph glyph-name="cedilla" unicode="&#x9;" horiz-adv-x="355" 
d="M171 0l-14 -91q16 2 38 0t33 -10q11 -9 11 -22q0 -8 -3.5 -13.5t-8.5 -8.5q-5 -4 -12 -4.5t-12 -0.5q-11 0 -19 1.5t-18 4.5q-11 4 -21.5 9t-19.5 12l-25 -49q11 -8 22 -14t25 -11q17 -6 32.5 -8t31.5 -2q23 0 42 6t33 17q10 8 19.5 23t9.5 38q0 20 -6.5 32.5t-13.5 18.5
q-13 12 -34.5 18.5t-44.5 5.5l9 48h-54z" />
    <glyph glyph-name="Cedilla" unicode="&#xa;" horiz-adv-x="377" 
d="M178 0l-15 -96q7 1 18 1.5t22 0t21.5 -3.5t17.5 -8q11 -9 11 -22q0 -5 -2 -11t-7 -10q-5 -5 -14.5 -7t-17.5 -2q-11 0 -20 2t-19 5q-13 5 -23.5 9.5t-21.5 12.5l-28 -52q11 -7 24.5 -13.5t27.5 -11.5q32 -11 65 -11q34 0 55 7.5t33 16.5q14 11 23 27.5t9 36.5
q0 17 -6 29.5t-14 20.5q-17 17 -40.5 23t-48.5 6l10 50h-60z" />
    <glyph glyph-name="circumflex" horiz-adv-x="559" 
d="M122 547h83l74 83l75 -83h83l-106 153h-104z" />
    <glyph glyph-name="Circumflex" horiz-adv-x="469" 
d="M77 741h83l74 68l75 -68h83l-106 145h-104z" />
    <glyph glyph-name="commainferior" unicode="&#xd;" horiz-adv-x="294" 
d="M77 -60v-213l140 83v130h-140z" />
    <glyph glyph-name="Commainferior" horiz-adv-x="294" 
d="M77 -60v-245l140 115v130h-140z" />
    <glyph glyph-name="dotlessi" horiz-adv-x="315" 
d="M35 494v-110h57v-384h146v494h-203z" />
    <glyph glyph-name="Commasuperior" horiz-adv-x="312" 
d="M77 700v-255l140 120v135h-140z" />
    <glyph glyph-name="dieresis" horiz-adv-x="485" 
d="M266 607q0 -23 18 -41t42 -18q25 0 42 18.5t17 40.5q0 24 -17.5 42t-41.5 18t-42 -18t-18 -42zM100 607q0 -22 17 -40.5t42 -18.5q24 0 42 18t18 41q0 24 -18 42t-42 18t-41.5 -18t-17.5 -42z" />
    <glyph glyph-name="Dieresis" horiz-adv-x="495" 
d="M275 806q0 -25 17.5 -42.5t42.5 -17.5t42.5 17.5t17.5 42.5t-17.5 42.5t-42.5 17.5t-42.5 -17.5t-17.5 -42.5zM100 806q0 -25 17.5 -42.5t42.5 -17.5t42.5 17.5t17.5 42.5t-17.5 42.5t-42.5 17.5t-42.5 -17.5t-17.5 -42.5z" />
    <glyph glyph-name="dotaccent" horiz-adv-x="294" 
d="M77 613q0 -29 20.5 -49.5t49.5 -20.5t49.5 20.5t20.5 49.5t-20.5 49.5t-49.5 20.5t-49.5 -20.5t-20.5 -49.5z" />
    <glyph glyph-name="Dotaccent" horiz-adv-x="287" 
d="M70 811q0 -29 20.5 -49.5t49.5 -20.5t49.5 20.5t20.5 49.5t-20.5 49.5t-49.5 20.5t-49.5 -20.5t-20.5 -49.5z" />
    <glyph glyph-name="Grave" horiz-adv-x="392" 
d="M190 886h-160l167 -145h95z" />
    <glyph glyph-name="hungarumlaut" horiz-adv-x="583" 
d="M238 700l-108 -153h72l176 153h-140zM423 700l-108 -153h72l176 153h-140z" />
    <glyph glyph-name="Hungarumlaut" horiz-adv-x="583" 
d="M238 886l-108 -145h72l176 145h-140zM423 886l-108 -145h72l176 145h-140z" />
    <glyph glyph-name="macron" horiz-adv-x="391" 
d="M77 567h237v77h-237v-77z" />
    <glyph glyph-name="Macron" horiz-adv-x="452" 
d="M100 747h252v84h-252v-84z" />
    <glyph glyph-name="ring" horiz-adv-x="430" 
d="M125 630q0 -18 7 -33.5t19 -27t28.5 -18t35.5 -6.5t35.5 6.5t28.5 18t19 27t7 33.5q0 37 -26.5 61t-63.5 24t-63.5 -24t-26.5 -61zM189 630q0 11 7.5 18.5t18.5 7.5t18.5 -7.5t7.5 -18.5t-7.5 -18.5t-18.5 -7.5t-18.5 7.5t-7.5 18.5z" />
    <glyph glyph-name="Ring" horiz-adv-x="380" 
d="M100 822q0 -18 7 -33.5t19 -27t28.5 -18t35.5 -6.5t35.5 6.5t28.5 18t19 27t7 33.5q0 37 -26.5 61t-63.5 24t-63.5 -24t-26.5 -61zM164 822q0 11 7.5 18.5t18.5 7.5t18.5 -7.5t7.5 -18.5t-7.5 -18.5t-18.5 -7.5t-18.5 7.5t-7.5 18.5z" />
    <glyph glyph-name="tilde" horiz-adv-x="521" 
d="M370 657q-7 -18 -19 -29q-7 -6 -14 -8t-15 -2t-14.5 2t-14.5 5l-28 11q-11 5 -28.5 10.5t-36.5 5.5q-20 0 -37.5 -6.5t-32.5 -23.5q-10 -11 -17.5 -25.5t-12.5 -27.5l51 -30q6 14 19 26q6 5 12 8t14 3q9 0 16.5 -2t15.5 -5l37 -14q14 -5 26 -10t29 -5q16 0 34 5.5
t32 17.5q13 11 22 28.5t13 33.5z" />
    <glyph glyph-name="Tilde" horiz-adv-x="533" 
d="M380 864q-3 -8 -8 -16t-11 -13q-13 -10 -31 -10q-8 0 -15 2t-15 5l-29 11q-42 16 -67 16q-21 0 -39 -6.5t-34 -23.5q-11 -11 -18.5 -25t-12.5 -28l53 -30q6 14 19 26q14 11 27 11q9 0 17.5 -2t16.5 -5l38 -14q20 -8 31 -11.5t26 -3.5q21 0 39 6t30 17q14 11 23 28t13 34z
" />
    <glyph glyph-name="cyrbreve" horiz-adv-x="456" 
d="M273 684l1 -3q2 -5 3 -11.5t1 -11.5q0 -10 -2.5 -18t-10.5 -14q-8 -7 -18.5 -8.5t-18.5 -1.5t-18.5 1.5t-18.5 8.5q-8 6 -10.5 14t-2.5 18q0 5 1 11.5t3 11.5l1 3l-92 5q-4 -9 -6.5 -21t-2.5 -28q0 -27 11.5 -46t40.5 -34q12 -6 35 -13t59 -7t59 7t35 13q29 15 40.5 34
t11.5 46q0 16 -2.5 28t-6.5 21z" />
    <glyph glyph-name="cyrBreve" horiz-adv-x="484" 
d="M288 878l1 -3q2 -4 3.5 -12t1.5 -10q0 -19 -14 -30q-11 -8 -20.5 -8.5t-17.5 -0.5t-17.5 0.5t-20.5 8.5q-8 6 -10.5 13t-2.5 17q0 6 1 11.5t3 10.5l1 3l-95 5q-4 -8 -6.5 -19.5t-2.5 -27.5q0 -30 13.5 -47t39.5 -29q23 -11 49 -15t48 -4t48 4t49 15q26 12 39.5 29
t13.5 47q0 16 -2.5 27.5t-6.5 19.5z" />
    <glyph glyph-name="space" unicode=" " horiz-adv-x="233" 
 />
    <glyph glyph-name="exclam" unicode="!" horiz-adv-x="362" 
d="M100 700l30 -517h102l30 517h-162zM251 0v130h-140v-130h140z" />
    <glyph glyph-name="quotedbl" unicode="&#x22;" horiz-adv-x="424" 
d="M45 700l30 -220h80l30 220h-140zM239 700l30 -220h80l30 220h-140z" />
    <glyph glyph-name="numbersign" unicode="#" horiz-adv-x="558" 
d="M392 24l33 170h111v98h-92l19 100h106v98h-87l34 172h-108l-34 -172h-102l34 172h-108l-34 -172h-111v-98h92l-19 -100h-109v-98h90l-33 -170h108l33 170h102l-33 -170h108zM336 292h-102l19 100h102z" />
    <glyph glyph-name="dollar" unicode="$" horiz-adv-x="648" 
d="M50 87q25 -20 53.5 -37.5t59.5 -30.5q32 -13 66.5 -20.5t67.5 -9.5v-83h85v86q42 5 81.5 21t68.5 40q29 23 52.5 64t23.5 104q0 39 -13.5 67.5t-40.5 54.5q-31 29 -65.5 44t-67.5 25l-39 12v165q12 -2 24.5 -6t24.5 -10q20 -10 38 -25t31 -30l79 96q-31 31 -71 54
q-31 18 -60 28.5t-66 13.5v89h-85v-89q-43 0 -85 -14t-70 -37q-11 -9 -23 -22.5t-21.5 -32.5t-16 -43.5t-6.5 -55.5q0 -47 14 -78.5t32 -51.5q15 -17 33 -28.5t36 -19t35.5 -13t32.5 -9.5l39 -12v-184q-13 1 -29.5 4t-37.5 11q-25 10 -52 27t-49 35zM297 434q-16 2 -31 8.5
t-26 16.5q-24 21 -24 52q0 25 8 40.5t19 23.5t25.5 12t28.5 5v-158zM382 277q13 -3 29.5 -10t28.5 -17q25 -21 25 -55q0 -23 -10 -39.5t-22 -26.5q-11 -9 -24.5 -15t-26.5 -8v171z" />
    <glyph glyph-name="percent" unicode="%" horiz-adv-x="880" 
d="M226 712q-43 0 -72 -14t-48 -35t-29 -45.5t-14.5 -45.5t-5.5 -36t-1 -16q0 -41 12 -76t34 -61t53.5 -40.5t70.5 -14.5t70.5 14.5t53.5 40.5t34 61t12 76q0 39 -11 74t-32 61t-53 41.5t-74 15.5zM226 612q11 0 18.5 -4.5t13.5 -12.5q13 -17 15.5 -35.5t2.5 -39.5
q0 -20 -2.5 -38.5t-15.5 -35.5q-6 -8 -13.5 -12.5t-18.5 -4.5t-18.5 4.5t-13.5 12.5q-13 17 -15.5 35.5t-2.5 38.5q0 21 2.5 39.5t15.5 35.5q6 8 13.5 12.5t18.5 4.5zM650 372q-42 0 -74 -15.5t-53 -41.5t-32 -61t-11 -74q0 -41 12 -76t34 -61t53.5 -40.5t70.5 -14.5
t70.5 14.5t53.5 40.5t34 61t12 76q0 39 -11 74t-32 61t-53 41.5t-74 15.5zM650 272q11 0 18.5 -4.5t13.5 -12.5q13 -17 15.5 -35.5t2.5 -39.5q0 -20 -2.5 -38.5t-15.5 -35.5q-6 -8 -13.5 -12.5t-18.5 -4.5t-18.5 4.5t-13.5 12.5q-13 17 -15.5 35.5t-2.5 38.5q0 21 2.5 39.5
t15.5 35.5q6 8 13.5 12.5t18.5 4.5zM707 700h-115l-426 -700h115z" />
    <glyph glyph-name="ampersand" unicode="&#x26;" horiz-adv-x="794" 
d="M542 328q0 -19 -4 -38t-14 -38l-111 121q25 9 51 26.5t43 38.5q15 19 24.5 44t9.5 55q0 42 -15.5 75.5t-42.5 56.5q-33 28 -72 35.5t-71 7.5q-33 0 -73 -8t-74 -37q-26 -23 -41.5 -53.5t-15.5 -62.5q0 -25 9.5 -60.5t41.5 -66.5l19 -18q-34 -9 -58.5 -26t-40.5 -34
q-26 -29 -38 -65t-12 -71q0 -53 24.5 -97.5t59.5 -70.5q32 -25 79.5 -39.5t102.5 -14.5q22 0 47.5 2.5t51.5 9.5t50 20t44 33l47 -53h195l-135 150q13 16 21.5 31.5t15.5 32.5q13 33 18 62t7 52h-143zM322 466q-7 5 -18 17.5t-15 18.5q-10 14 -10 32q0 25 18 42q9 8 21 12
t24 4q23 0 40 -15q11 -11 13 -22t2 -22q0 -14 -4 -26t-15 -23q-8 -8 -20.5 -15.5t-23.5 -12.5zM439 141q-23 -22 -50.5 -30.5t-56.5 -8.5q-25 0 -46 7.5t-36 20.5q-15 12 -27 32.5t-12 49.5q0 26 6.5 44t15.5 29q8 9 20 19t23 17z" />
    <glyph glyph-name="quotesingle" unicode="'" horiz-adv-x="210" 
d="M35 700l30 -220h80l30 220h-140z" />
    <glyph glyph-name="parenleft" unicode="(" horiz-adv-x="359" 
d="M208 720q-29 -42 -54 -86.5t-46 -97.5q-16 -40 -26.5 -75t-16.5 -68.5t-8.5 -68t-2.5 -73.5t2.5 -73.5t8.5 -68.5t16.5 -68.5t26.5 -74.5q21 -53 46 -97.5t54 -86.5h106q-16 31 -34.5 74.5t-34.5 96.5q-23 78 -32 149t-9 149t9 149t32 149q16 53 34.5 96.5t34.5 74.5
h-106z" />
    <glyph glyph-name="parenright" unicode=")" horiz-adv-x="359" 
d="M45 720q16 -31 34.5 -74.5t34.5 -96.5q23 -78 32 -149t9 -149t-9 -149t-32 -149q-16 -53 -34.5 -96.5t-34.5 -74.5h106q29 42 54 86.5t46 97.5q16 40 26.5 74.5t16.5 68.5t8.5 68.5t2.5 73.5t-2.5 73.5t-8.5 68t-16.5 68.5t-26.5 75q-21 53 -46 97.5t-54 86.5h-106z" />
    <glyph glyph-name="asterisk" unicode="*" horiz-adv-x="464" 
d="M220 435l71 -95l82 58l-71 95l112 35l-32 92l-112 -35v115h-100v-115l-113 35l-32 -93l113 -34l-70 -95l80 -58z" />
    <glyph glyph-name="plus" unicode="+" horiz-adv-x="555" 
d="M221 538v-175h-176v-114h176v-175h113v175h176v114h-176v175h-113z" />
    <glyph glyph-name="comma" unicode="," horiz-adv-x="230" 
d="M45 130v-245l140 115v130h-140z" />
    <glyph glyph-name="hyphenminus" unicode="-" horiz-adv-x="295" 
d="M30 347v-110h235v110h-235z" />
    <glyph glyph-name="period" unicode="." horiz-adv-x="230" 
d="M185 0v130h-140v-130h140z" />
    <glyph glyph-name="slash" unicode="/" horiz-adv-x="487" 
d="M-45 -218h135l441 942h-135z" />
    <glyph glyph-name="zero" unicode="0" 
d="M310 712q-33 0 -60.5 -7t-49 -17.5t-38 -24t-27.5 -26.5q-25 -29 -40 -64t-22.5 -72.5t-10 -76t-2.5 -74.5t2.5 -74.5t10 -76t22.5 -73t40 -63.5q11 -13 27.5 -26.5t38 -24t49 -17.5t60.5 -7t60 7t49 17.5t38.5 24t27.5 26.5q25 28 40 63.5t22.5 73t10 76t2.5 74.5
t-2.5 74.5t-10 76t-22.5 72.5t-40 64q-11 13 -27.5 26.5t-38.5 24t-49 17.5t-60 7zM402 300q0 -51 -4 -94.5t-25 -69.5q-15 -18 -32.5 -23t-30.5 -5t-30.5 5t-32.5 23q-21 26 -25 69.5t-4 94.5v100q0 51 4 94.5t25 69.5q15 18 32.5 23t30.5 5t30.5 -5t32.5 -23
q21 -26 25 -69.5t4 -94.5v-100z" />
    <glyph glyph-name="one" unicode="1" 
d="M287 700l-116 -83v-148l93 67v-536h150v700h-127z" />
    <glyph glyph-name="two" unicode="2" 
d="M553 120h-307l130 125q14 13 30.5 30t33 34.5t30.5 35t24 31.5q5 7 13 20.5t15.5 31.5t13 40t5.5 46q0 41 -15.5 77.5t-44.5 62.5q-32 29 -77 43.5t-93 14.5q-32 0 -70 -6t-63 -17q-17 -7 -34.5 -19t-32 -29.5t-23.5 -41.5t-9 -55q0 -33 14 -64l147 -4q-7 21 -7 44
q0 15 4 30t21 27q8 6 20 10.5t28 4.5q23 0 36 -7t20 -14q8 -8 14.5 -24.5t6.5 -42.5q0 -17 -5.5 -33t-18.5 -35q-4 -6 -12 -16t-17 -21t-17.5 -21t-13.5 -16l-222 -252v-110h476v120z" />
    <glyph glyph-name="three" unicode="3" 
d="M227 306h78q19 0 38 -5t36 -22q11 -11 18.5 -28t7.5 -41q0 -19 -5 -37t-16 -32q-16 -20 -36.5 -26.5t-41.5 -6.5q-32 0 -56.5 7t-41.5 18q-16 9 -34 24t-31 29l-88 -93q22 -23 48 -42t59 -33q38 -17 75 -23.5t73 -6.5q62 0 108.5 16t75.5 41q32 26 50.5 66t18.5 87
q0 27 -10.5 63t-45.5 67q-30 27 -73 40v5q35 12 54.5 29.5t24.5 24.5q16 20 24 42t8 51q0 38 -16 75t-46 64q-38 34 -84.5 43.5t-98.5 9.5q-44 0 -85 -6.5t-79 -29.5q-48 -29 -64 -77t3 -97l128 -11q-8 25 -0.5 51.5t36.5 39.5q11 5 26 7.5t28 2.5q28 0 48 -9.5t31 -23.5
q7 -10 11 -23t4 -29q0 -20 -6.5 -35t-14.5 -24q-9 -10 -27 -19t-42 -9h-70v-114z" />
    <glyph glyph-name="four" unicode="4" 
d="M337 0h150v122h75v120h-75v152h-137v-152h-119l225 458h-158l-238 -482v-96h277v-122z" />
    <glyph glyph-name="five" unicode="5" 
d="M125 700l-25 -409h128q1 13 5.5 27t14.5 25q6 7 17.5 13.5t30.5 6.5q28 0 43.5 -13t22.5 -24q5 -8 11 -29.5t6 -70.5q0 -20 -3.5 -45t-17.5 -44q-10 -13 -25.5 -21t-38.5 -8q-19 0 -36 5t-31 13q-11 6 -22 15t-22 23l-96 -81q21 -26 45 -43.5t47 -28.5q26 -11 56.5 -17
t59.5 -6q36 0 64.5 6.5t50.5 16.5t38.5 22.5t27.5 25.5q29 32 45 80t16 101q0 57 -18.5 106t-50.5 81q-29 29 -65.5 42.5t-74.5 13.5q-43 0 -79 -20l7 117h244v120h-375z" />
    <glyph glyph-name="six" unicode="6" 
d="M518 657q-11 10 -29.5 21.5t-44.5 19.5q-9 3 -33 8.5t-63 5.5q-26 0 -52.5 -3.5t-52 -13t-50 -26.5t-45.5 -44q-23 -29 -37 -64t-22 -72.5t-10.5 -76.5t-2.5 -76q0 -90 11.5 -151t40.5 -102q27 -39 75.5 -67t111.5 -28q52 0 98 20t75 54q15 17 25.5 37.5t17 42.5t10 44
t3.5 41q0 48 -15 91t-42 73q-35 39 -75.5 51t-75.5 12q-26 0 -52.5 -6.5t-52.5 -25.5q-1 38 5.5 74t24.5 59q11 13 30.5 25t51.5 12q27 0 53 -8q29 -9 52 -28zM312 334q24 0 37.5 -9.5t20.5 -19.5q10 -15 14 -38.5t4 -45.5t-4 -45.5t-14 -38.5q-7 -10 -20.5 -19.5
t-37.5 -9.5t-37.5 9.5t-20.5 19.5q-10 15 -14 38.5t-4 45.5t4 45.5t14 38.5q7 10 20.5 19.5t37.5 9.5z" />
    <glyph glyph-name="seven" unicode="7" 
d="M537 700h-454v-130h281l-237 -570h157l253 610v90z" />
    <glyph glyph-name="eight" unicode="8" 
d="M190 373q-20 -10 -46 -26.5t-42 -33.5q-18 -19 -31 -46.5t-13 -62.5q0 -44 16 -84.5t48 -69.5q33 -30 81 -46t107 -16q66 0 116 20t80 50q21 21 38.5 56.5t17.5 88.5q0 42 -12.5 69t-34.5 50q-33 33 -81 51q19 8 38 21t32 29q16 20 24 45t8 49q0 51 -18.5 86t-44.5 57
q-36 31 -76.5 41.5t-86.5 10.5q-37 0 -78 -8.5t-79 -37.5q-34 -27 -51.5 -66.5t-17.5 -84.5q0 -26 8.5 -47t23.5 -40q30 -36 74 -55zM304 433q-21 11 -31 19t-15 13q-11 12 -15.5 25.5t-4.5 27.5q0 19 6 31.5t14 20.5t21.5 14t30.5 6q31 0 52 -21q20 -21 20 -54
q0 -17 -4.5 -31t-17.5 -28q-7 -8 -17.5 -16t-25.5 -14zM346 293q5 -2 14.5 -8.5t19.5 -17.5t17 -27t7 -38q0 -15 -4 -30.5t-14 -28.5q-11 -14 -30.5 -24t-45.5 -10q-28 0 -45.5 9.5t-26.5 20.5q-14 15 -18 32t-4 35q0 25 7.5 41t24.5 32q14 14 28 21.5t28 12.5z" />
    <glyph glyph-name="nine" unicode="9" 
d="M102 43q38 -32 81 -43.5t89 -11.5q61 0 110 17.5t90 69.5q24 30 38 66t21.5 73.5t10 75.5t2.5 74q0 74 -10 140t-42 113q-27 39 -75.5 67t-111.5 28q-52 0 -98 -20t-75 -54q-15 -17 -25.5 -37.5t-17 -42.5t-10 -44t-3.5 -41q0 -48 15 -91t42 -73q35 -39 75.5 -51
t75.5 -12q26 0 52.5 6.5t52.5 25.5q1 -38 -5.5 -74t-24.5 -59q-11 -13 -30.5 -25t-51.5 -12q-17 0 -46.5 6.5t-58.5 29.5zM308 366q-24 0 -37.5 9.5t-20.5 19.5q-10 15 -14 38.5t-4 45.5t4 45.5t14 38.5q7 10 20.5 19.5t37.5 9.5t37.5 -9.5t20.5 -19.5q10 -15 14 -38.5
t4 -45.5t-4 -45.5t-14 -38.5q-7 -10 -20.5 -19.5t-37.5 -9.5z" />
    <glyph glyph-name="colon" unicode=":" horiz-adv-x="230" 
d="M185 297v130h-140v-130h140zM185 0v130h-140v-130h140z" />
    <glyph glyph-name="semicolon" unicode=";" horiz-adv-x="230" 
d="M45 130v-245l140 115v130h-140zM185 297v130h-140v-130h140z" />
    <glyph glyph-name="less" unicode="&#x3c;" horiz-adv-x="540" 
d="M45 335v-86l450 -168v120l-273 91l273 91v120z" />
    <glyph glyph-name="equal" unicode="=" horiz-adv-x="555" 
d="M45 449v-114h465v114h-465zM45 277v-114h465v114h-465z" />
    <glyph glyph-name="greater" unicode="&#x3e;" horiz-adv-x="540" 
d="M495 335l-450 168v-120l273 -91l-273 -91v-120l450 168v86z" />
    <glyph glyph-name="question" unicode="?" horiz-adv-x="566" 
d="M191 183h140v39q0 28 7 47t18.5 33t27 25.5t32.5 24.5t34.5 29t32 36.5t23.5 46.5t9 59t-12.5 66t-35.5 58q-21 22 -45.5 34.5t-49.5 19.5t-48 9t-41 2q-46 0 -92 -9.5t-80 -34.5q-18 -13 -32.5 -32.5t-22.5 -43t-7 -50t15 -53.5h141q-9 23 -5.5 47.5t21.5 38.5
q11 8 26 12.5t29 4.5q34 0 58 -19q15 -13 19 -27.5t4 -26.5q0 -35 -22.5 -61t-54.5 -53q-16 -14 -32 -28.5t-28.5 -34t-20.5 -45t-8 -59.5v-55zM331 0v130h-140v-130h140z" />
    <glyph glyph-name="at" unicode="@" horiz-adv-x="823" 
d="M596 125q-53 -32 -96 -39t-69 -7q-49 0 -100.5 13t-97.5 58q-35 34 -57 86t-22 115q0 70 27 126t70 91q8 7 23 17t36.5 19.5t50 16.5t63.5 7q71 0 119 -22t77 -54q54 -58 54 -152q0 -40 -10.5 -69.5t-25.5 -49t-31.5 -29t-28.5 -9.5q-9 0 -13 7t-4.5 16.5t0.5 18.5t2 13
l42 205q-32 19 -74 32t-84 13q-45 0 -75.5 -11.5t-48.5 -25.5q-22 -17 -43.5 -45.5t-33.5 -57.5q-8 -20 -14 -49t-6 -54q0 -33 9 -58t24 -42q14 -16 39 -29.5t66 -13.5q3 0 15.5 1t29 6.5t34 17t32.5 33.5h2q2 -11 8 -21.5t14 -17.5q11 -9 29 -14t35 -5q11 0 29 2.5t39.5 11
t43.5 25t41 43.5q22 32 34.5 74.5t12.5 90.5q0 52 -18.5 104.5t-66.5 100.5q-51 51 -117 74.5t-133 23.5q-74 0 -143 -26t-120 -76q-52 -51 -78.5 -119.5t-26.5 -140.5q0 -47 9 -86t23 -69.5t30.5 -53.5t30.5 -38q46 -49 115 -82t154 -33q57 0 113 16.5t105 46.5zM456 290
q-16 -19 -33 -30q-9 -5 -21 -9.5t-23 -4.5q-6 0 -14 2.5t-13 7.5t-7.5 13.5t-2.5 25.5q0 15 2.5 33.5t7 38t12 37.5t17.5 31q16 20 32 25.5t32 5.5q8 0 21.5 -2t24.5 -6z" />
    <glyph glyph-name="A" unicode="A" horiz-adv-x="676" 
d="M396 700h-116l-270 -700h145l63 168h212l66 -168h170zM257 288l20 57q13 35 24 74t19 69h6q12 -51 22.5 -80t19.5 -54l24 -66h-135z" />
    <glyph glyph-name="B" unicode="B" horiz-adv-x="671" 
d="M95 700v-700h242q23 0 50 1.5t54.5 7t53.5 16.5t47 29q26 23 45 63.5t19 91.5q0 26 -7 51.5t-24 49.5q-20 27 -42 38.5t-39 16.5v3q17 6 35 18.5t32 37.5q14 24 18 49t4 40q0 51 -16.5 85.5t-46.5 57.5q-21 15 -45.5 24t-50 13.5t-49.5 5.5t-43 1h-237zM251 580h91
q14 0 30 -3.5t30 -16.5q14 -14 17.5 -30.5t3.5 -31.5q0 -11 -4 -23.5t-13 -23.5q-16 -19 -36.5 -23t-39.5 -4h-79v156zM251 304h78q20 0 42.5 -3.5t40.5 -17.5q11 -8 20.5 -24.5t9.5 -45.5q0 -44 -24 -68q-16 -17 -36.5 -21t-35.5 -4h-95v184z" />
    <glyph glyph-name="C" unicode="C" horiz-adv-x="667" 
d="M594 483q10 28 10.5 56t-7.5 53t-24 46t-40 36q-21 13 -46.5 21t-50 11.5t-45 4.5t-31.5 1q-25 0 -53 -3t-56.5 -12t-56.5 -26t-53 -45q-26 -29 -42 -64t-24.5 -71.5t-11.5 -72.5t-3 -68q0 -31 3 -65t12 -69t25 -69t42 -64q15 -17 35.5 -33.5t49 -30.5t64.5 -22.5
t81 -8.5q51 0 88.5 10t50.5 15q25 9 51.5 23t54.5 34l-62 106q-14 -12 -32 -23.5t-37 -19.5q-26 -11 -55 -16t-52 -5q-38 0 -67 13t-45 30q-13 14 -21.5 34.5t-13 43.5t-6.5 46t-2 43v58q0 24 1.5 48.5t5.5 47.5t11.5 43.5t20.5 35.5q19 23 41 30t45 7q32 0 50.5 -7.5
t27.5 -15.5q19 -17 22 -43.5t-1 -52.5z" />
    <glyph glyph-name="D" unicode="D" horiz-adv-x="719" 
d="M95 700v-700h212q26 0 57.5 3t65.5 12t68.5 26.5t65.5 47.5q30 29 49 61.5t29 66t13.5 67.5t3.5 66q0 30 -3 63.5t-13 67t-28.5 66t-49.5 61.5q-40 38 -103 65t-155 27h-212zM251 580h56q16 0 35 -2t38 -7t37.5 -15.5t33.5 -26.5q29 -32 36.5 -72.5t7.5 -78.5v-56
q0 -17 -1.5 -37t-6 -40t-13.5 -39t-23 -35q-17 -18 -37 -28t-40 -15.5t-37.5 -6.5t-29.5 -1h-56v460z" />
    <glyph glyph-name="E" unicode="E" horiz-adv-x="571" 
d="M502 700h-407v-700h441v120h-285v187h251v120h-251v153h251v120z" />
    <glyph glyph-name="F" unicode="F" horiz-adv-x="536" 
d="M501 700h-406v-700h156v297h244v120h-244v163h250v120z" />
    <glyph glyph-name="G" unicode="G" horiz-adv-x="704" 
d="M473 125q-4 -2 -26 -9.5t-58 -7.5q-34 0 -64.5 11t-50.5 31q-18 18 -28 43.5t-15 51t-6 47t-1 32.5v80q0 19 1.5 39.5t6 41t14 40t24.5 34.5q22 21 45 27t44 6t44.5 -2.5t43.5 -17.5q12 -9 20 -27.5t0 -53.5l147 9q7 19 9.5 42.5t-3 47.5t-21.5 46t-46 40
q-40 23 -87 29.5t-86 6.5q-30 0 -61 -3t-62.5 -13t-61.5 -29t-57 -50q-26 -30 -41 -64t-23.5 -69.5t-11 -69.5t-2.5 -64q0 -21 2 -49.5t8.5 -60.5t19 -65t32.5 -62q13 -18 34 -40t52.5 -41t74.5 -31.5t99 -12.5q48 0 88 8.5t77 22.5q29 11 51.5 22t30.5 16v307h-265v-120
h109v-119z" />
    <glyph glyph-name="H" unicode="H" horiz-adv-x="750" 
d="M655 700h-156v-274h-248v274h-156v-700h156v302h248v-302h156v700z" />
    <glyph glyph-name="I" unicode="I" horiz-adv-x="346" 
d="M95 0h156v700h-156v-700z" />
    <glyph glyph-name="J" unicode="J" horiz-adv-x="497" 
d="M261 700v-496q0 -17 -4 -35.5t-19 -35.5q-14 -15 -30 -20t-33 -5q-18 0 -36 5t-33 13q-10 5 -20 12.5t-20 18.5l-71 -96q13 -11 36 -26.5t45 -25.5q8 -3 35 -12t72 -9q37 0 65.5 6.5t49.5 15.5t35 19.5t23 19.5q21 22 33.5 47.5t18.5 50.5t7.5 48.5t1.5 40.5v464h-156z
" />
    <glyph glyph-name="K" unicode="K" horiz-adv-x="694" 
d="M251 700h-156v-700h156v229l70 81l179 -310h179l-249 412l230 288h-181l-228 -293v293z" />
    <glyph glyph-name="L" unicode="L" horiz-adv-x="552" 
d="M537 0v124h-286v576h-156v-700h442z" />
    <glyph glyph-name="M" unicode="M" horiz-adv-x="821" 
d="M95 0h144v236l-5 189h7l128 -266h71l130 266h8l-8 -189v-236h156v700h-156l-158 -320l-163 320h-154v-700z" />
    <glyph glyph-name="N" unicode="N" horiz-adv-x="760" 
d="M519 700v-231l6 -214h-6l-282 445h-142v-700h146v192l-6 253h6l282 -445h142v700h-146z" />
    <glyph glyph-name="O" unicode="O" horiz-adv-x="722" 
d="M361 712q-44 0 -79 -8.5t-62 -22t-47 -30t-33 -31.5q-27 -30 -42.5 -64.5t-24 -70.5t-11 -70.5t-2.5 -64.5t2.5 -64.5t11 -70.5t24 -70.5t42.5 -64.5q13 -15 33 -31.5t47 -30t62 -22t79 -8.5t79 8.5t62 22t46.5 30t33.5 31.5q27 30 42.5 64.5t24 70.5t11 70.5t2.5 64.5
t-2.5 64.5t-11 70.5t-24 70.5t-42.5 64.5q-14 15 -33.5 31.5t-46.5 30t-62 22t-79 8.5zM498 316q0 -65 -10 -106t-30 -64q-13 -14 -37 -26t-60 -12t-60 12t-37 26q-20 23 -30 64t-10 106v69q0 125 40 169q13 14 37 26t60 12q21 0 36.5 -4t27.5 -10t20 -12.5t13 -11.5
q15 -17 23 -39.5t11.5 -46t4.5 -46t1 -37.5v-69z" />
    <glyph glyph-name="P" unicode="P" horiz-adv-x="651" 
d="M95 700v-700h156v283h105q42 0 74 6t56 15.5t40 21t27 21.5q25 24 41.5 61.5t16.5 87.5q0 55 -20.5 94.5t-58.5 65.5q-44 30 -94 37t-96 7h-247zM251 580h91q19 0 41 -4.5t39 -20.5q10 -9 17.5 -25t7.5 -41q0 -18 -7 -34.5t-18 -27.5q-9 -9 -21.5 -13.5t-24.5 -7t-22 -3
t-14 -0.5h-89v177z" />
    <glyph glyph-name="Q" unicode="Q" horiz-adv-x="722" 
d="M284 -19q0 -14 1.5 -29.5t7 -31.5t16 -31.5t27.5 -28.5q27 -22 58.5 -28t58.5 -6q7 0 21 0.5t32.5 4t41 11t46.5 20.5l-43 91q-8 -5 -14 -7t-13 -4q-9 -2 -16.5 -4t-21.5 -2q-11 0 -20 2t-17 10q-11 12 -11 29v20q28 5 50.5 15t40.5 21.5t31 24t22 22.5q27 30 42.5 65
t24 70t11 70t2.5 65t-2.5 64.5t-11 70.5t-24 70.5t-42.5 64.5q-14 15 -33.5 31.5t-46.5 30t-62 22t-79 8.5t-79 -8.5t-62 -22t-47 -30t-33 -31.5q-27 -30 -42.5 -64.5t-24 -70.5t-11 -70.5t-2.5 -64.5t2.5 -65t11 -70t24 -70t42.5 -65q9 -10 22 -22.5t31 -24t40.5 -21.5
t50.5 -15v-16zM498 316q0 -65 -10 -106t-30 -64q-13 -14 -37 -26t-60 -12t-60 12t-37 26q-20 23 -30 64t-10 106v69q0 125 40 169q13 14 37 26t60 12q21 0 36.5 -4t27.5 -10t20 -12.5t13 -11.5q15 -17 23 -39.5t11.5 -46t4.5 -46t1 -37.5v-69z" />
    <glyph glyph-name="R" unicode="R" horiz-adv-x="683" 
d="M95 700v-700h156v292h57q25 0 39 -7t20 -12q10 -9 17 -24t14 -31l92 -218h173l-106 242q-11 25 -30.5 48t-55.5 32v5q27 6 54.5 20.5t46.5 36.5q20 24 29.5 56t9.5 61q0 48 -17.5 85.5t-46.5 61.5q-23 19 -49 30t-53 15.5t-53.5 5.5t-48.5 1h-248zM251 580h101
q16 0 36.5 -4.5t37.5 -21.5q13 -13 17 -27.5t4 -28.5q0 -12 -3 -28t-16 -30q-17 -20 -37 -24t-39 -4h-101v168z" />
    <glyph glyph-name="S" unicode="S" horiz-adv-x="596" 
d="M40 87q23 -20 51 -38.5t57 -30.5q14 -6 51.5 -18t92.5 -12q66 0 115 18t81 47q23 21 36.5 42.5t20.5 43t9 42t2 37.5q0 39 -10 70t-34 58q-26 30 -58 44.5t-58 22.5l-71 21l-15 5t-19 6.5t-18.5 8t-14.5 9.5q-13 11 -17 24t-4 27q0 12 3.5 25.5t14.5 26.5q15 17 34 21.5
t35 4.5q46 0 82 -19q17 -9 35 -24.5t31 -30.5l76 95q-23 23 -42 37.5t-27 19.5q-40 25 -78.5 33.5t-84.5 8.5q-44 0 -90.5 -10.5t-84.5 -46.5q-20 -19 -31.5 -39.5t-17.5 -41t-7.5 -40t-1.5 -35.5q0 -25 7 -58t31 -63q23 -29 54.5 -44.5t54.5 -23.5l61 -21q24 -8 46 -14.5
t37 -19.5q17 -14 21.5 -30t4.5 -32q0 -14 -4 -27.5t-17 -27.5q-19 -20 -43 -25t-46 -5q-19 0 -37.5 3.5t-39.5 12.5q-23 10 -50 27t-47 35z" />
    <glyph glyph-name="T" unicode="T" horiz-adv-x="570" 
d="M363 0v576h192v124h-540v-124h192v-576h156z" />
    <glyph glyph-name="U" unicode="U" horiz-adv-x="720" 
d="M640 700h-156v-436q0 -30 -2.5 -58t-21.5 -54q-20 -27 -47 -35.5t-53 -8.5t-53 8.5t-47 35.5q-19 26 -21.5 54t-2.5 58v436h-156v-432q0 -63 20 -116.5t55 -88.5q33 -33 86.5 -54t118.5 -21t118.5 21t86.5 54q35 35 55 88.5t20 116.5v432z" />
    <glyph glyph-name="V" unicode="V" horiz-adv-x="632" 
d="M-5 700l260 -700h122l260 700h-155l-109 -329q-6 -18 -11.5 -35t-10.5 -34t-9.5 -36t-9.5 -43h-8q-7 27 -16.5 62t-23.5 75l-115 340h-174z" />
    <glyph glyph-name="W" unicode="W" horiz-adv-x="864" 
d="M15 700l195 -700h116l104 324h4l104 -324h116l195 700h-150l-74 -267l-30 -190h-8l-91 357h-115l-48 -189l-38 -168h-8l-23 144l-80 313h-169z" />
    <glyph glyph-name="X" unicode="X" horiz-adv-x="652" 
d="M23 700l209 -337l-227 -363h155l150 251l149 -251h188l-230 375l201 325h-152l-128 -218l-126 218h-189z" />
    <glyph glyph-name="Y" unicode="Y" horiz-adv-x="626" 
d="M391 0v291l240 409h-152l-153 -262l-144 262h-187l240 -409v-291h156z" />
    <glyph glyph-name="Z" unicode="Z" horiz-adv-x="577" 
d="M530 700h-475v-120h284l-304 -475v-105h507v120h-317l305 476v104z" />
    <glyph glyph-name="bracketleft" unicode="[" horiz-adv-x="328" 
d="M313 730h-233v-948h232v104h-92v740h93v104z" />
    <glyph glyph-name="backslash" unicode="\" horiz-adv-x="487" 
d="M531 -218l-441 942h-135l441 -942h135z" />
    <glyph glyph-name="bracketright" unicode="]" horiz-adv-x="328" 
d="M80 730v-104h93v-740h-92v-104h232v948h-233z" />
    <glyph glyph-name="asciicircum" unicode="^" horiz-adv-x="452" 
d="M226 594l114 -287h77l-161 393h-59l-162 -393h76z" />
    <glyph glyph-name="underscore" unicode="_" horiz-adv-x="692" 
d="M0 -193h692v94h-692v-94z" />
    <glyph glyph-name="grave" unicode="`" horiz-adv-x="392" 
d="M190 700h-150l167 -153h85z" />
    <glyph glyph-name="b" unicode="b" horiz-adv-x="599" 
d="M223 740h-146v-691q59 -36 114.5 -48.5t102.5 -12.5q54 0 102 14t86 54q22 23 35 48.5t20 51t9.5 49.5t2.5 44q0 28 -3 56t-11 54.5t-23.5 51t-39.5 45.5q-58 50 -142 50q-37 0 -62.5 -8t-44.5 -20v262zM223 377q22 16 39.5 20.5t31.5 4.5t34 -3.5t37 -20.5
q21 -20 25.5 -49t4.5 -56v-47q0 -26 -3 -52.5t-17 -46.5q-9 -14 -26.5 -24.5t-46.5 -10.5q-23 0 -43 8t-36 19v258z" />
    <glyph glyph-name="c" unicode="c" horiz-adv-x="552" 
d="M467 140q-18 -11 -40.5 -21.5t-43.5 -16.5q-6 -2 -24 -6t-40 -4q-20 0 -44.5 6t-40.5 22q-11 11 -17 24.5t-9 27t-3.5 26.5t-0.5 23v78q0 22 3.5 43t23.5 39q15 14 32 17.5t31 3.5q13 0 24.5 -3t21.5 -13q12 -11 14.5 -24t2.5 -25q0 -13 -3 -28l141 10q5 12 7 23.5
t2 24.5q0 35 -13 61t-45 46q-34 21 -70.5 26.5t-69.5 5.5q-16 0 -35.5 -1.5t-40.5 -6t-42.5 -13t-41.5 -22.5q-32 -22 -51 -50.5t-29 -58.5t-13 -58.5t-3 -51.5q0 -57 19 -110t73 -95q38 -29 76 -40t85 -11q40 0 70 6t53 14t43 17.5t43 25.5z" />
    <glyph glyph-name="d" unicode="d" horiz-adv-x="595" 
d="M372 740v-252l-14 4q-14 4 -30 9t-43 5q-42 0 -82.5 -13t-70.5 -39q-14 -12 -28.5 -30t-26.5 -43.5t-19.5 -58.5t-7.5 -75q0 -22 3 -47t9.5 -49.5t17.5 -48t28 -42.5q29 -33 73 -52.5t92 -19.5q28 0 57.5 8t52.5 25q8 7 17.5 16t16.5 17l39 -66h73l-11 135v617h-146z
M372 223q0 -19 -2 -41.5t-10 -42.5t-25 -33.5t-48 -13.5q-23 0 -36 8t-20 15q-20 22 -23.5 52t-3.5 59v38q0 29 2.5 57.5t27.5 54.5q15 16 31 21t36 5q11 0 29.5 -5t41.5 -22v-152z" />
    <glyph glyph-name="e" unicode="e" horiz-adv-x="560" 
d="M204 212h309v51q0 69 -18.5 112t-40.5 66q-28 29 -71.5 47t-97.5 18q-52 0 -94.5 -16.5t-78.5 -54.5q-20 -22 -32.5 -43.5t-19 -44t-8.5 -45.5t-2 -48q0 -23 2 -48.5t9.5 -51t21 -50.5t36.5 -47q24 -24 51 -37.5t53.5 -20.5t51 -9t42.5 -2q32 0 61.5 5t56.5 14
q44 15 85 41l-49 90q-34 -20 -69 -31q-20 -6 -37 -9t-40 -3t-46 6t-43 23q-14 14 -23 33.5t-9 39.5v15zM204 302v17q0 26 7 42t15 26q9 11 23.5 19t35.5 8q27 0 41.5 -11t20.5 -20q11 -16 13.5 -34.5t2.5 -29.5v-17h-159z" />
    <glyph glyph-name="f" unicode="f" horiz-adv-x="363" 
d="M353 394v100h-108v72q0 11 2.5 22.5t10.5 21.5q11 13 24 15.5t20 2.5q11 0 24.5 -3t30.5 -12l11 -6l45 102l-14 7q-29 15 -61 19.5t-55 4.5q-25 0 -57.5 -7t-61.5 -30q-23 -19 -36 -41.5t-19.5 -44.5t-8 -41t-1.5 -30v-52h-84v-100h84v-394h146v394h108z" />
    <glyph glyph-name="g" unicode="g" horiz-adv-x="595" 
d="M475 494l-35 -44q-29 23 -68.5 39.5t-87.5 16.5q-58 0 -101.5 -18.5t-69.5 -45.5q-22 -23 -34.5 -49t-19 -52.5t-8 -51t-1.5 -42.5q0 -23 2 -48t9.5 -50t22 -49.5t38.5 -45.5q23 -20 58 -37t85 -17q23 0 50 4.5t57 21.5v-43q0 -11 -1.5 -28t-8.5 -29q-7 -13 -27.5 -26.5
t-64.5 -13.5q-38 0 -74 10q-32 9 -63 24l-39 -95q15 -7 33.5 -14t35.5 -12q30 -9 59.5 -13t58.5 -4q42 0 73.5 7t53.5 16.5t35.5 19.5t20.5 17q20 20 31 42.5t16 45.5t6 44.5t1 38.5v481h-43zM372 124q-27 -15 -48.5 -18.5t-29.5 -3.5q-27 0 -43 8.5t-24 17.5t-13 21t-7 24
t-2.5 23t-0.5 19v84q0 14 3.5 35t19.5 39q11 13 27.5 21t33.5 8q27 0 46 -8q12 -5 21 -10.5t17 -12.5v-247z" />
    <glyph glyph-name="h" unicode="h" horiz-adv-x="612" 
d="M223 0v364q7 6 15 11.5t15 9.5q14 8 29 12.5t32 4.5q25 0 38 -7t18 -12q14 -14 16.5 -29t2.5 -31v-323h146v311q0 15 -1 33t-6 37.5t-15.5 39.5t-30.5 38t-54 32.5t-88 14.5q-25 0 -54 -6t-63 -26v266h-146v-740h146z" />
    <glyph glyph-name="i" unicode="i" horiz-adv-x="328" 
d="M35 494v-110h57v-384h146v494h-203zM79 636q0 -36 25 -61t61 -25t61 25t25 61t-25 61t-61 25t-61 -25t-25 -61z" />
    <glyph glyph-name="j" unicode="j" horiz-adv-x="328" 
d="M35 494v-110h57v-602h146v712h-203zM79 636q0 -36 25 -61t61 -25t61 25t25 61t-25 61t-61 25t-61 -25t-25 -61z" />
    <glyph glyph-name="k" unicode="k" horiz-adv-x="578" 
d="M223 740h-146v-740h146v174l41 37l129 -211h173l-198 310l193 184h-172l-166 -167v413z" />
    <glyph glyph-name="l" unicode="l" horiz-adv-x="300" 
d="M223 740h-146v-740h146v740z" />
    <glyph glyph-name="m" unicode="m" horiz-adv-x="873" 
d="M238 0v369q16 14 34 24t40 10q28 0 44 -17q12 -12 14.5 -26t2.5 -25v-335h146v369q16 14 34 24t40 10q28 0 44 -17q12 -12 14.5 -26t2.5 -25v-335h146v319q0 63 -20.5 100t-50.5 56.5t-63 25t-58 5.5q-51 0 -80.5 -17.5t-46.5 -37.5q-46 55 -123 55q-53 0 -85 -16
t-49 -30l-11 -9v43h-178v-104h57v-390h146z" />
    <glyph glyph-name="n" unicode="n" horiz-adv-x="623" 
d="M35 494v-104h57v-390h146v362q8 6 17.5 12.5t17.5 11.5q13 7 26.5 11.5t29.5 4.5q19 0 33 -5.5t23 -13.5q14 -14 16.5 -29t2.5 -31v-323h146v311q0 15 -1 33t-6 37.5t-15.5 39.5t-29.5 38q-16 15 -34.5 24.5t-37 14.5t-36.5 6.5t-33 1.5q-26 0 -46 -3.5t-43 -14.5
q-16 -7 -29 -16t-26 -21v43h-178z" />
    <glyph glyph-name="o" unicode="o" horiz-adv-x="578" 
d="M289 506q-44 0 -88 -11.5t-82 -46.5q-24 -22 -38.5 -47.5t-22.5 -51.5t-10.5 -52t-2.5 -50t2.5 -50t10.5 -52t22.5 -51.5t38.5 -47.5q38 -35 82 -46.5t88 -11.5t88 11.5t82 46.5q24 22 38.5 47.5t22.5 51.5t10.5 52t2.5 50t-2.5 50t-10.5 52t-22.5 51.5t-38.5 47.5
q-38 35 -82 46.5t-88 11.5zM379 206q0 -18 -3 -44t-24 -46q-13 -12 -30 -18t-33 -6t-33 6t-30 18q-21 20 -24 46t-3 44v82q0 18 3 44t24 46q13 12 30 18t33 6t33 -6t30 -18q21 -20 24 -46t3 -44v-82z" />
    <glyph glyph-name="p" unicode="p" horiz-adv-x="590" 
d="M223 -218v233q10 -6 35 -16.5t73 -10.5q53 0 86.5 15.5t53.5 32.5q25 22 40 49.5t22.5 55.5t9.5 55.5t2 50.5q0 24 -1.5 48.5t-7 49t-17 48.5t-31.5 47q-26 30 -63.5 48t-88.5 18q-38 0 -71.5 -13t-57.5 -42v43h-130v-712h146zM223 362q15 16 38 28t49 12q11 0 29 -4.5
t32 -22.5t17 -41.5t3 -42.5v-83q0 -23 -3.5 -47t-18.5 -42q-7 -8 -22.5 -17.5t-43.5 -9.5q-15 0 -36.5 5t-43.5 21v244z" />
    <glyph glyph-name="q" unicode="q" horiz-adv-x="595" 
d="M372 -218h146v712h-48l-35 -44q-43 32 -79.5 44t-82.5 12q-19 0 -40.5 -2.5t-43 -9.5t-42.5 -20t-40 -34q-20 -22 -31.5 -46t-17 -49t-7 -50t-1.5 -48t2 -50.5t9.5 -55.5t22.5 -55.5t40 -49.5q20 -17 53.5 -32.5t86.5 -15.5q48 0 73 10.5t35 16.5v-233zM372 118
q-22 -16 -43.5 -21t-36.5 -5q-28 0 -43.5 9.5t-22.5 17.5q-15 18 -18.5 42t-3.5 47v83q0 19 3 42.5t17 41.5t32 22.5t29 4.5q26 0 49 -12t38 -28v-244z" />
    <glyph glyph-name="r" unicode="r" horiz-adv-x="448" 
d="M77 494v-494h146v290q0 6 0.5 15t2.5 19.5t5.5 21.5t10.5 19q8 10 21 16t29 6q20 0 34.5 -10t21.5 -27l110 51q1 31 -11.5 51t-26.5 31q-11 8 -23.5 12.5t-24.5 7t-22.5 3t-17.5 0.5q-26 0 -45.5 -6.5t-34.5 -15.5t-25 -19t-15 -17l-11 -15v61h-124z" />
    <glyph glyph-name="s" unicode="s" horiz-adv-x="492" 
d="M446 439q-34 28 -74 45q-32 13 -58.5 17.5t-62.5 4.5q-32 0 -65 -6t-63 -29q-9 -7 -19 -17.5t-19 -26t-14.5 -36t-5.5 -46.5q0 -32 8.5 -52.5t16.5 -31.5q23 -33 56.5 -45t70.5 -20q30 -6 50 -10.5t31 -14.5q7 -7 9 -14.5t2 -15.5t-3 -17t-13 -17q-11 -10 -25 -12.5
t-24 -2.5q-23 0 -42.5 4t-36.5 10q-21 8 -38 17t-34 23l-60 -83q18 -14 42.5 -29.5t45.5 -23.5q26 -11 60.5 -16.5t62.5 -5.5q66 0 105 18t59 36q29 27 40 57.5t11 57.5q0 34 -11.5 58t-28.5 40q-25 23 -55.5 33.5t-62.5 16.5q-22 5 -45.5 8.5t-35.5 17.5q-3 4 -6 10.5
t-3 16.5t3 17.5t12 14.5q9 8 18 10t21 2q22 0 40 -5t35 -13q29 -15 50 -31z" />
    <glyph glyph-name="t" unicode="t" horiz-adv-x="371" 
d="M114 657v-163h-84v-100h84v-394h146v394h96v100h-96v163h-146z" />
    <glyph glyph-name="u" unicode="u" horiz-adv-x="608" 
d="M385 494v-352q-7 -7 -16.5 -15.5t-18.5 -14.5q-29 -20 -60 -20q-15 0 -28 4t-24 15q-14 14 -16.5 29t-2.5 31v323h-146v-311q0 -16 1 -34t6 -37t15.5 -38.5t29.5 -38.5q28 -27 60.5 -37t66.5 -10q23 0 51.5 5t51.5 18q14 8 29 20.5t26 25.5v-57h121v494h-146z" />
    <glyph glyph-name="v" unicode="v" horiz-adv-x="526" 
d="M154 494h-154l197 -494h127l197 494h-128l-82 -214q-10 -26 -20 -58.5t-18 -63.5h-3q-3 10 -6.5 23.5t-8 28t-9 28.5t-8.5 25z" />
    <glyph glyph-name="w" unicode="w" horiz-adv-x="768" 
d="M15 494l172 -494h109l89 275h6l87 -275h108l172 494h-128l-65 -198q-17 -50 -23 -108h-4q-6 28 -14.5 60t-16.5 55l-68 191h-81l-68 -201q-8 -22 -15.5 -52t-12.5 -53h-4q-2 7 -4.5 19t-5.5 25.5t-6.5 27.5t-6.5 24l-66 210h-154z" />
    <glyph glyph-name="x" unicode="x" horiz-adv-x="511" 
d="M268 355l-82 139h-166l152 -234l-172 -260h130l108 172l101 -172h167l-173 270l144 224h-125z" />
    <glyph glyph-name="y" unicode="y" horiz-adv-x="508" 
d="M-5 494l210 -514l-11 -33q-2 -7 -6 -16t-9 -17q-7 -11 -18 -19.5t-31 -8.5q-19 0 -39 10q-5 2 -13.5 7.5t-17.5 15.5l-59 -77q11 -11 24 -22t30 -19q22 -11 41.5 -15t42.5 -4q34 0 63 8t53 29q25 22 38 50t20 49l190 576h-129l-68 -224q-10 -32 -17.5 -62t-15.5 -70h-4
q-4 34 -11 57.5t-16 48.5l-93 250h-154z" />
    <glyph glyph-name="z" unicode="z" horiz-adv-x="476" 
d="M48 379h220l-233 -290v-89h406v115h-234l234 290v89h-393v-115z" />
    <glyph glyph-name="braceleft" unicode="{" horiz-adv-x="361" 
d="M298 736q-54 1 -87.5 -14t-51.5 -35q-26 -29 -32.5 -67t-7.5 -73q-1 -26 0 -53t0 -53q-1 -67 -17 -92q-11 -17 -29.5 -28t-42.5 -9v-112q24 2 42.5 -9t29.5 -28q16 -25 17 -92q1 -26 0 -53t0 -53q1 -35 7.5 -73t32.5 -67q18 -20 51.5 -35t87.5 -14l13 93
q-36 -2 -52.5 19.5t-18.5 63.5v23q1 37 1.5 65t0.5 51q0 40 -8 65t-18 40t-31 32t-56 25v6q37 8 58 26t31 36q11 20 17.5 47t6.5 53v21t-0.5 23t-1 30t-0.5 42v23q2 42 18.5 63.5t52.5 19.5z" />
    <glyph glyph-name="bar" unicode="|" horiz-adv-x="364" 
d="M248 724h-132v-942h132v942z" />
    <glyph glyph-name="braceright" unicode="}" horiz-adv-x="361" 
d="M50 643q36 2 52.5 -19.5t18.5 -63.5v-23q0 -25 -0.5 -42t-1 -30t-0.5 -23v-21q0 -26 6.5 -53t17.5 -47q10 -18 31 -36t58 -26v-6q-35 -8 -56 -25t-31 -32t-18 -40t-8 -65q0 -23 0.5 -51t1.5 -65v-23q-2 -42 -18.5 -63.5t-52.5 -19.5l13 -93q54 -1 87.5 14t51.5 35
q26 29 32.5 67t7.5 73q1 26 0 53t0 53q1 67 17 92q11 17 29.5 28t42.5 9v112q-24 -2 -42.5 9t-29.5 28q-16 25 -17 92q-1 26 0 53t0 53q-1 35 -7.5 73t-32.5 67q-18 20 -51.5 35t-87.5 14z" />
    <glyph glyph-name="asciitilde" unicode="~" horiz-adv-x="606" 
d="M120 271q13 26 35 48q8 8 16.5 13.5t23.5 5.5q11 0 24 -3.5t22 -7.5l49 -21q16 -7 45 -16.5t67 -9.5q32 0 59 11t50 36q12 14 26.5 36.5t23.5 39.5l-77 44q-12 -20 -22 -32t-18.5 -18.5t-15.5 -8.5t-14 -2q-10 0 -26 3t-27 8l-44 18q-41 17 -64 23t-47 6q-29 0 -51 -8
t-45 -28q-14 -13 -31 -34t-34 -59z" />
    <glyph glyph-name="afii10051" horiz-adv-x="802" 
d="M192 576v-576h156v287q21 12 49 21t62 9q28 0 48 -7.5t32 -18.5q17 -16 22 -35.5t5 -36.5v-15q0 -35 -6.5 -51t-11.5 -22q-12 -14 -27.5 -18.5t-30.5 -4.5q-20 0 -38 6q-7 2 -12.5 4.5t-10.5 4.5l-42 -107q14 -8 25.5 -12t25.5 -7q18 -4 36.5 -6.5t38.5 -2.5
q42 0 81.5 11t72.5 46q19 20 30 42t16.5 44.5t7 45.5t1.5 44q0 24 -3.5 48t-12.5 46.5t-25.5 43t-41.5 38.5q-21 14 -56 27t-89 13q-42 0 -77 -7.5t-69 -22.5v169h207v124h-540v-124h177z" />
    <glyph glyph-name="afii10051" unicode="&#x402;" horiz-adv-x="802" 
d="M192 576v-576h156v287q21 12 49 21t62 9q28 0 48 -7.5t32 -18.5q17 -16 22 -35.5t5 -36.5v-15q0 -35 -6.5 -51t-11.5 -22q-12 -14 -27.5 -18.5t-30.5 -4.5q-20 0 -38 6q-7 2 -12.5 4.5t-10.5 4.5l-42 -107q14 -8 25.5 -12t25.5 -7q18 -4 36.5 -6.5t38.5 -2.5
q42 0 81.5 11t72.5 46q19 20 30 42t16.5 44.5t7 45.5t1.5 44q0 24 -3.5 48t-12.5 46.5t-25.5 43t-41.5 38.5q-21 14 -56 27t-89 13q-42 0 -77 -7.5t-69 -22.5v169h207v124h-540v-124h177z" />
    <glyph glyph-name="afii10052" horiz-adv-x="516" 
d="M496 700h-401v-700h156v576h245v124zM258 886l-102 -145h95l167 145h-160z" />
    <glyph glyph-name="afii10052" unicode="&#x403;" horiz-adv-x="516" 
d="M496 700h-401v-700h156v576h245v124zM258 886l-102 -145h95l167 145h-160z" />
    <glyph glyph-name="quotesinglbase" unicode="&#x201a;" horiz-adv-x="220" 
d="M35 130v-245l140 115v130h-140z" />
    <glyph glyph-name="afii10100" unicode="&#x192;" horiz-adv-x="443" 
d="M77 494v-494h146v384h215v110h-361zM227 700l-102 -153h85l167 153h-150z" />
    <glyph glyph-name="afii10100" unicode="&#x453;" horiz-adv-x="443" 
d="M77 494v-494h146v384h215v110h-361zM227 700l-102 -153h85l167 153h-150z" />
    <glyph glyph-name="quotedblbase" unicode="&#x201e;" horiz-adv-x="428" 
d="M45 127v-237l134 112v125h-134zM249 127v-237l134 112v125h-134z" />
    <glyph glyph-name="ellipsis" unicode="&#x2026;" horiz-adv-x="680" 
d="M185 0v130h-140v-130h140zM405 0v130h-140v-130h140zM635 0v130h-140v-130h140z" />
    <glyph glyph-name="dagger" unicode="&#x2020;" horiz-adv-x="542" 
d="M171 544h-136v-130h136v-414h140v414h136v130h-136v156h-140v-156z" />
    <glyph glyph-name="daggerdbl" unicode="&#x2021;" horiz-adv-x="542" 
d="M171 556h-136v-125h136v-133h-136v-125h136v-173h140v173h136v125h-136v133h136v125h-136v156h-140v-156z" />
    <glyph glyph-name="accent" horiz-adv-x="10" 
d="M-218 700l-102 -153h85l167 153h-150z" />
    <glyph glyph-name="accent" unicode="&#x20ac;" horiz-adv-x="10" 
d="M-218 700l-102 -153h85l167 153h-150z" />
    <glyph glyph-name="accent" unicode="&#x301;" horiz-adv-x="10" 
d="M-218 700l-102 -153h85l167 153h-150z" />
    <glyph glyph-name="accent" unicode="&#x2c6;" horiz-adv-x="10" 
d="M-218 700l-102 -153h85l167 153h-150z" />
    <glyph glyph-name="perthousand" unicode="&#x2030;" horiz-adv-x="1261" 
d="M226 712q-43 0 -72 -14t-48 -35t-29 -45.5t-14.5 -45.5t-5.5 -36t-1 -16q0 -41 12 -76t34 -61t53.5 -40.5t70.5 -14.5t70.5 14.5t53.5 40.5t34 61t12 76q0 39 -11 74t-32 61t-53 41.5t-74 15.5zM226 612q11 0 18.5 -4.5t13.5 -12.5q13 -17 15.5 -35.5t2.5 -39.5
q0 -20 -2.5 -38.5t-15.5 -35.5q-6 -8 -13.5 -12.5t-18.5 -4.5t-18.5 4.5t-13.5 12.5q-13 17 -15.5 35.5t-2.5 38.5q0 21 2.5 39.5t15.5 35.5q6 8 13.5 12.5t18.5 4.5zM650 372q-42 0 -74 -15.5t-53 -41.5t-32 -61t-11 -74q0 -41 12 -76t34 -61t53.5 -40.5t70.5 -14.5
t70.5 14.5t53.5 40.5t34 61t12 76q0 39 -11 74t-32 61t-53 41.5t-74 15.5zM650 272q11 0 18.5 -4.5t13.5 -12.5q13 -17 15.5 -35.5t2.5 -39.5q0 -20 -2.5 -38.5t-15.5 -35.5q-6 -8 -13.5 -12.5t-18.5 -4.5t-18.5 4.5t-13.5 12.5q-13 17 -15.5 35.5t-2.5 38.5q0 21 2.5 39.5
t15.5 35.5q6 8 13.5 12.5t18.5 4.5zM705 700h-115l-426 -700h115zM1031 372q-42 0 -74 -15.5t-53 -41.5t-32 -61t-11 -74q0 -41 12 -76t34 -61t53.5 -40.5t70.5 -14.5t70.5 14.5t53.5 40.5t34 61t12 76q0 1 -1 16t-5.5 36t-14.5 45.5t-29 45.5t-48.5 35t-71.5 14zM1031 272
q11 0 18.5 -4.5t13.5 -12.5q13 -17 15.5 -35.5t2.5 -39.5q0 -20 -2.5 -38.5t-15.5 -35.5q-6 -8 -13.5 -12.5t-18.5 -4.5t-18.5 4.5t-13.5 12.5q-13 17 -15.5 35.5t-2.5 38.5q0 21 2.5 39.5t15.5 35.5q6 8 13.5 12.5t18.5 4.5z" />
    <glyph glyph-name="afii10058" unicode="&#x160;" horiz-adv-x="964" 
d="M573 438v262h-424l-4 -143q-1 -24 -2 -53.5t-2.5 -60t-3.5 -58.5t-3 -48q-3 -37 -6 -62t-6.5 -42t-7 -28t-7.5 -19q-17 -34 -46.5 -47.5t-70.5 -11.5l13 -139q60 -3 109 12t84 47q21 20 34.5 43t21.5 46t12 45t6 40q7 51 11 110t6 116l4 129h126v-576h213q24 0 51 1.5
t55.5 7.5t56.5 18t52 32q32 27 53 69t21 93q0 32 -7.5 58t-19.5 47t-27.5 37t-31.5 27q-23 16 -47 25.5t-48.5 14.5t-49 6.5t-47.5 1.5h-68zM573 318h73q19 0 37.5 -3t38.5 -20q12 -11 22.5 -29t10.5 -48q0 -20 -6 -37.5t-16 -28.5q-12 -14 -32 -23t-41 -9h-87v198z" />
    <glyph glyph-name="afii10058" unicode="&#x409;" horiz-adv-x="964" 
d="M573 438v262h-424l-4 -143q-1 -24 -2 -53.5t-2.5 -60t-3.5 -58.5t-3 -48q-3 -37 -6 -62t-6.5 -42t-7 -28t-7.5 -19q-17 -34 -46.5 -47.5t-70.5 -11.5l13 -139q60 -3 109 12t84 47q21 20 34.5 43t21.5 46t12 45t6 40q7 51 11 110t6 116l4 129h126v-576h213q24 0 51 1.5
t55.5 7.5t56.5 18t52 32q32 27 53 69t21 93q0 32 -7.5 58t-19.5 47t-27.5 37t-31.5 27q-23 16 -47 25.5t-48.5 14.5t-49 6.5t-47.5 1.5h-68zM573 318h73q19 0 37.5 -3t38.5 -20q12 -11 22.5 -29t10.5 -48q0 -20 -6 -37.5t-16 -28.5q-12 -14 -32 -23t-41 -9h-87v198z" />
    <glyph glyph-name="guilsinglleft" unicode="&#x2039;" horiz-adv-x="304" 
d="M168 315l116 193h-118l-121 -193l121 -199h118z" />
    <glyph glyph-name="afii10059" unicode="&#x152;" horiz-adv-x="1046" 
d="M655 430v270h-156v-270h-248v270h-156v-700h156v310h248v-310h213q24 0 51.5 1.5t56 7.5t56 18t51.5 32q32 27 53 69t21 93q0 43 -19 87t-67 76q-44 29 -95.5 37.5t-96.5 8.5h-68zM655 310h73q18 0 37.5 -3t38.5 -19q12 -10 22.5 -28t10.5 -46q0 -20 -6 -36t-16 -27
q-12 -13 -32.5 -22t-40.5 -9h-87v190z" />
    <glyph glyph-name="afii10059" unicode="&#x40a;" horiz-adv-x="1046" 
d="M655 430v270h-156v-270h-248v270h-156v-700h156v310h248v-310h213q24 0 51.5 1.5t56 7.5t56 18t51.5 32q32 27 53 69t21 93q0 43 -19 87t-67 76q-44 29 -95.5 37.5t-96.5 8.5h-68zM655 310h73q18 0 37.5 -3t38.5 -19q12 -10 22.5 -28t10.5 -46q0 -20 -6 -36t-16 -27
q-12 -13 -32.5 -22t-40.5 -9h-87v190z" />
    <glyph glyph-name="afii10061" horiz-adv-x="678" 
d="M251 700h-156v-700h156v307h60q18 0 35.5 -6.5t28.5 -17.5q5 -5 15.5 -23t25.5 -63l66 -197h167l-78 231q-7 20 -16 40t-24 40q-11 14 -33.5 32.5t-61.5 24.5v3q18 5 33 14t26 21q11 13 20.5 33t15.5 39l11 36q7 22 11.5 37.5t12.5 25.5q12 15 32 15q11 0 22 -3t19 -8
l24 113q-24 11 -45 14.5t-42 3.5q-36 0 -68 -13q-31 -13 -49.5 -38.5t-32.5 -68.5l-34 -104q-4 -12 -11 -27t-15 -21q-8 -7 -21.5 -10t-24.5 -3h-69v273zM339 886l-102 -145h95l167 145h-160z" />
    <glyph glyph-name="afii10061" unicode="&#x40c;" horiz-adv-x="678" 
d="M251 700h-156v-700h156v307h60q18 0 35.5 -6.5t28.5 -17.5q5 -5 15.5 -23t25.5 -63l66 -197h167l-78 231q-7 20 -16 40t-24 40q-11 14 -33.5 32.5t-61.5 24.5v3q18 5 33 14t26 21q11 13 20.5 33t15.5 39l11 36q7 22 11.5 37.5t12.5 25.5q12 15 32 15q11 0 22 -3t19 -8
l24 113q-24 11 -45 14.5t-42 3.5q-36 0 -68 -13q-31 -13 -49.5 -38.5t-32.5 -68.5l-34 -104q-4 -12 -11 -27t-15 -21q-8 -7 -21.5 -10t-24.5 -3h-69v273zM339 886l-102 -145h95l167 145h-160z" />
    <glyph glyph-name="afii10060" horiz-adv-x="802" 
d="M192 576v-576h156v287q11 7 38.5 18.5t72.5 11.5q29 0 48.5 -7.5t31.5 -18.5q17 -16 22 -35.5t5 -36.5v-219h156v210q0 23 -2 48t-9.5 49t-22 46.5t-39.5 40.5q-17 12 -36.5 20t-40.5 13.5t-41 7.5t-37 2q-47 0 -83 -9t-63 -21v169h207v124h-540v-124h177z" />
    <glyph glyph-name="afii10060" unicode="&#x40b;" horiz-adv-x="802" 
d="M192 576v-576h156v287q11 7 38.5 18.5t72.5 11.5q29 0 48.5 -7.5t31.5 -18.5q17 -16 22 -35.5t5 -36.5v-219h156v210q0 23 -2 48t-9.5 49t-22 46.5t-39.5 40.5q-17 12 -36.5 20t-40.5 13.5t-41 7.5t-37 2q-47 0 -83 -9t-63 -21v169h207v124h-540v-124h177z" />
    <glyph glyph-name="afii10145" horiz-adv-x="736" 
d="M641 0v700h-156v-576h-234v576h-156v-700h546zM295 0v-138h146v138h-146z" />
    <glyph glyph-name="afii10145" unicode="&#x40f;" horiz-adv-x="736" 
d="M641 0v700h-156v-576h-234v576h-156v-700h546zM295 0v-138h146v138h-146z" />
    <glyph glyph-name="afii10099" horiz-adv-x="616" 
d="M227 0v364q7 6 15 11.5t15 9.5q14 8 29 12.5t32 4.5q25 0 38 -7t18 -12q14 -14 16.5 -29t2.5 -31v-267q0 -21 -2.5 -49t-12 -52.5t-29 -42t-52.5 -17.5h-18v-113h35q55 0 93 17.5t63 45.5t39 62.5t20.5 68.5t8 64t1.5 48v223q0 15 -1 33t-6 37.5t-15.5 39.5t-30.5 38
t-54 32.5t-88 14.5q-25 0 -54 -6t-63 -26v86h151v77h-151v103h-146v-103h-71v-77h71v-560h146z" />
    <glyph glyph-name="afii10099" unicode="&#x452;" horiz-adv-x="616" 
d="M227 0v364q7 6 15 11.5t15 9.5q14 8 29 12.5t32 4.5q25 0 38 -7t18 -12q14 -14 16.5 -29t2.5 -31v-267q0 -21 -2.5 -49t-12 -52.5t-29 -42t-52.5 -17.5h-18v-113h35q55 0 93 17.5t63 45.5t39 62.5t20.5 68.5t8 64t1.5 48v223q0 15 -1 33t-6 37.5t-15.5 39.5t-30.5 38
t-54 32.5t-88 14.5q-25 0 -54 -6t-63 -26v86h151v77h-151v103h-146v-103h-71v-77h71v-560h146z" />
    <glyph glyph-name="quoteleft" unicode="&#x2018;" horiz-adv-x="230" 
d="M185 512v245l-140 -115v-130h140z" />
    <glyph glyph-name="quoteright" unicode="&#x2019;" horiz-adv-x="220" 
d="M35 700v-245l140 115v130h-140z" />
    <glyph glyph-name="quotedblleft" unicode="&#x201c;" horiz-adv-x="428" 
d="M383 520v237l-134 -112v-125h134zM179 520v237l-134 -112v-125h134z" />
    <glyph glyph-name="quotedblright" unicode="&#x201d;" horiz-adv-x="458" 
d="M60 700v-237l134 112v125h-134zM264 700v-237l134 112v125h-134z" />
    <glyph glyph-name="bullet" unicode="&#x2022;" horiz-adv-x="332" 
d="M50 326q0 -24 9.5 -45t25 -36.5t36.5 -25t45 -9.5t45 9.5t36.5 25t25 36.5t9.5 45t-9.5 45t-25 36.5t-36.5 25t-45 9.5t-45 -9.5t-36.5 -25t-25 -36.5t-9.5 -45z" />
    <glyph glyph-name="endash" unicode="&#x2013;" horiz-adv-x="550" 
d="M50 237h450v108h-450v-108z" />
    <glyph glyph-name="emdash" unicode="&#x2014;" horiz-adv-x="787" 
d="M45 243h697v98h-697v-98z" />
    <glyph glyph-name="Accent" horiz-adv-x="10" 
d="M-298 886l-102 -145h95l167 145h-160z" />
    <glyph glyph-name="Accent" unicode="&#x2dc;" horiz-adv-x="10" 
d="M-298 886l-102 -145h95l167 145h-160z" />
    <glyph glyph-name="trademark" unicode="&#x2122;" horiz-adv-x="838" 
d="M25 700v-86h108v-295h114v295h108v86h-330zM398 319h102v212l68 -124h48l66 124v-212h116v381h-121l-81 -157l-86 157h-112v-381z" />
    <glyph glyph-name="afii10106" unicode="&#x161;" horiz-adv-x="821" 
d="M480 327v167h-359l-1 -75q0 -24 -1 -51.5t-2 -54t-2.5 -50.5t-2.5 -43q-1 -10 -2.5 -23.5t-6 -28t-12 -28.5t-20.5 -23q-15 -11 -36 -15t-40 -1l15 -113q38 -4 75.5 4.5t63.5 25.5q22 15 37 33.5t24 38.5t13.5 39t6.5 35q3 19 5.5 49t4.5 82l3 95h91v-390h237
q75 0 118.5 18.5t66 44.5t29 54.5t6.5 48.5q0 29 -9.5 58t-32.5 52t-63.5 37t-101.5 14h-104zM480 223h82q13 0 27.5 -2t25.5 -10q7 -5 14.5 -17t7.5 -33q0 -10 -3 -20.5t-13 -19.5q-12 -12 -26.5 -14.5t-29.5 -2.5h-85v119z" />
    <glyph glyph-name="afii10106" unicode="&#x459;" horiz-adv-x="821" 
d="M480 327v167h-359l-1 -75q0 -24 -1 -51.5t-2 -54t-2.5 -50.5t-2.5 -43q-1 -10 -2.5 -23.5t-6 -28t-12 -28.5t-20.5 -23q-15 -11 -36 -15t-40 -1l15 -113q38 -4 75.5 4.5t63.5 25.5q22 15 37 33.5t24 38.5t13.5 39t6.5 35q3 19 5.5 49t4.5 82l3 95h91v-390h237
q75 0 118.5 18.5t66 44.5t29 54.5t6.5 48.5q0 29 -9.5 58t-32.5 52t-63.5 37t-101.5 14h-104zM480 223h82q13 0 27.5 -2t25.5 -10q7 -5 14.5 -17t7.5 -33q0 -10 -3 -20.5t-13 -19.5q-12 -12 -26.5 -14.5t-29.5 -2.5h-85v119z" />
    <glyph glyph-name="guilsinglright" unicode="&#x203a;" horiz-adv-x="304" 
d="M161 315l-116 -199h118l121 199l-121 193h-118z" />
    <glyph glyph-name="afii10107" unicode="&#x153;" horiz-adv-x="876" 
d="M535 494h-146v-177h-166v177h-146v-494h146v213h166v-213h237q40 0 83 6.5t80 35.5q34 26 45.5 59t11.5 60q0 38 -15.5 68.5t-37.5 47.5q-17 14 -38.5 22t-42.5 12t-40.5 5t-32.5 1h-104v177zM535 213h82q8 0 24.5 -1.5t28.5 -9.5q4 -2 13 -12.5t9 -33.5
q0 -13 -4.5 -21.5t-10.5 -14.5q-11 -11 -27 -13.5t-30 -2.5h-85v109z" />
    <glyph glyph-name="afii10107" unicode="&#x45a;" horiz-adv-x="876" 
d="M535 494h-146v-177h-166v177h-146v-494h146v213h166v-213h237q40 0 83 6.5t80 35.5q34 26 45.5 59t11.5 60q0 38 -15.5 68.5t-37.5 47.5q-17 14 -38.5 22t-42.5 12t-40.5 5t-32.5 1h-104v177zM535 213h82q8 0 24.5 -1.5t28.5 -9.5q4 -2 13 -12.5t9 -33.5
q0 -13 -4.5 -21.5t-10.5 -14.5q-11 -11 -27 -13.5t-30 -2.5h-85v109z" />
    <glyph glyph-name="afii10109" horiz-adv-x="563" 
d="M223 494h-146v-494h146v205h43q9 0 20.5 -2t21.5 -10q12 -9 18 -24t11 -28l50 -141h159l-68 169q-6 14 -16.5 31t-27.5 31q-10 7 -21 12.5t-20.5 8.5t-16 5t-7.5 2v3q31 4 48.5 23t22.5 36l7 23l8 24t6 15t9.5 12.5t21.5 6.5q4 0 12.5 -1.5t22.5 -9.5l21 98
q-25 11 -45 14t-36 3q-17 0 -32.5 -2t-32.5 -10q-12 -6 -31 -24t-32 -61l-17 -57q-2 -8 -6 -17t-12 -15q-9 -8 -21.5 -9.5t-20.5 -1.5h-39v185zM287 700l-102 -153h85l167 153h-150z" />
    <glyph glyph-name="afii10109" unicode="&#x45c;" horiz-adv-x="563" 
d="M223 494h-146v-494h146v205h43q9 0 20.5 -2t21.5 -10q12 -9 18 -24t11 -28l50 -141h159l-68 169q-6 14 -16.5 31t-27.5 31q-10 7 -21 12.5t-20.5 8.5t-16 5t-7.5 2v3q31 4 48.5 23t22.5 36l7 23l8 24t6 15t9.5 12.5t21.5 6.5q4 0 12.5 -1.5t22.5 -9.5l21 98
q-25 11 -45 14t-36 3q-17 0 -32.5 -2t-32.5 -10q-12 -6 -31 -24t-32 -61l-17 -57q-2 -8 -6 -17t-12 -15q-9 -8 -21.5 -9.5t-20.5 -1.5h-39v185zM287 700l-102 -153h85l167 153h-150z" />
    <glyph glyph-name="afii10108" horiz-adv-x="612" 
d="M227 0v364q7 6 15 11.5t15 9.5q14 8 29 12.5t32 4.5q25 0 38 -7t18 -12q14 -14 16.5 -29t2.5 -31v-323h146v311q0 15 -1 33t-6 37.5t-15.5 39.5t-30.5 38t-54 32.5t-88 14.5q-25 0 -54 -6t-63 -26v86h151v77h-151v103h-146v-103h-71v-77h71v-560h146z" />
    <glyph glyph-name="afii10108" unicode="&#x45b;" horiz-adv-x="612" 
d="M227 0v364q7 6 15 11.5t15 9.5q14 8 29 12.5t32 4.5q25 0 38 -7t18 -12q14 -14 16.5 -29t2.5 -31v-323h146v311q0 15 -1 33t-6 37.5t-15.5 39.5t-30.5 38t-54 32.5t-88 14.5q-25 0 -54 -6t-63 -26v86h151v77h-151v103h-146v-103h-71v-77h71v-560h146z" />
    <glyph glyph-name="afii10193" unicode="&#x178;" horiz-adv-x="601" 
d="M524 0v494h-146v-384h-155v384h-146v-494h447zM233 0v-124h135v124h-135z" />
    <glyph glyph-name="afii10193" unicode="&#x45f;" horiz-adv-x="601" 
d="M524 0v494h-146v-384h-155v384h-146v-494h447zM233 0v-124h135v124h-135z" />
    <glyph glyph-name="nonbreakingspace" unicode="&#xa0;" horiz-adv-x="233" 
 />
    <glyph glyph-name="afii10062" unicode="&#xa1;" horiz-adv-x="607" 
d="M10 700l249 -506l-13 -28q-14 -31 -26 -44.5t-34 -13.5q-17 0 -36.5 7t-36.5 19l-49 -106q42 -26 74 -33t54 -7q42 0 76 12t66 47q25 27 38.5 55.5t25.5 57.5l224 540h-152l-78 -202q-13 -33 -27.5 -77t-24.5 -77h-4q-11 35 -24.5 73t-32.5 82l-88 201h-181zM366 878
l1 -3q2 -4 3.5 -12t1.5 -10q0 -19 -14 -30q-11 -8 -20.5 -8.5t-17.5 -0.5t-17.5 0.5t-20.5 8.5q-8 6 -10.5 13t-2.5 17q0 6 1 11.5t3 10.5l1 3l-95 5q-4 -8 -6.5 -19.5t-2.5 -27.5q0 -30 13.5 -47t39.5 -29q23 -11 49 -15t48 -4t48 4t49 15q26 12 39.5 29t13.5 47
q0 16 -2.5 27.5t-6.5 19.5z" />
    <glyph glyph-name="afii10062" unicode="&#x40e;" horiz-adv-x="607" 
d="M10 700l249 -506l-13 -28q-14 -31 -26 -44.5t-34 -13.5q-17 0 -36.5 7t-36.5 19l-49 -106q42 -26 74 -33t54 -7q42 0 76 12t66 47q25 27 38.5 55.5t25.5 57.5l224 540h-152l-78 -202q-13 -33 -27.5 -77t-24.5 -77h-4q-11 35 -24.5 73t-32.5 82l-88 201h-181zM366 878
l1 -3q2 -4 3.5 -12t1.5 -10q0 -19 -14 -30q-11 -8 -20.5 -8.5t-17.5 -0.5t-17.5 0.5t-20.5 8.5q-8 6 -10.5 13t-2.5 17q0 6 1 11.5t3 10.5l1 3l-95 5q-4 -8 -6.5 -19.5t-2.5 -27.5q0 -30 13.5 -47t39.5 -29q23 -11 49 -15t48 -4t48 4t49 15q26 12 39.5 29t13.5 47
q0 16 -2.5 27.5t-6.5 19.5z" />
    <glyph glyph-name="afii10110" unicode="&#xa2;" horiz-adv-x="508" 
d="M-5 494l210 -514l-11 -33q-2 -7 -6 -16t-9 -17q-7 -11 -18 -19.5t-31 -8.5q-19 0 -39 10q-5 2 -13.5 7.5t-17.5 15.5l-59 -77q11 -11 24 -22t30 -19q22 -11 41.5 -15t42.5 -4q34 0 63 8t53 29q25 22 38 50t20 49l190 576h-129l-68 -224q-10 -32 -17.5 -62t-15.5 -70h-4
q-4 34 -11 57.5t-16 48.5l-93 250h-154zM305 684l1 -3q2 -5 3 -11.5t1 -11.5q0 -10 -2.5 -18t-10.5 -14q-8 -7 -18.5 -8.5t-18.5 -1.5t-18.5 1.5t-18.5 8.5q-8 6 -10.5 14t-2.5 18q0 5 1 11.5t3 11.5l1 3l-92 5q-4 -9 -6.5 -21t-2.5 -28q0 -27 11.5 -46t40.5 -34
q12 -6 35 -13t59 -7t59 7t35 13q29 15 40.5 34t11.5 46q0 16 -2.5 28t-6.5 21z" />
    <glyph glyph-name="afii10110" unicode="&#x45e;" horiz-adv-x="508" 
d="M-5 494l210 -514l-11 -33q-2 -7 -6 -16t-9 -17q-7 -11 -18 -19.5t-31 -8.5q-19 0 -39 10q-5 2 -13.5 7.5t-17.5 15.5l-59 -77q11 -11 24 -22t30 -19q22 -11 41.5 -15t42.5 -4q34 0 63 8t53 29q25 22 38 50t20 49l190 576h-129l-68 -224q-10 -32 -17.5 -62t-15.5 -70h-4
q-4 34 -11 57.5t-16 48.5l-93 250h-154zM305 684l1 -3q2 -5 3 -11.5t1 -11.5q0 -10 -2.5 -18t-10.5 -14q-8 -7 -18.5 -8.5t-18.5 -1.5t-18.5 1.5t-18.5 8.5q-8 6 -10.5 14t-2.5 18q0 5 1 11.5t3 11.5l1 3l-92 5q-4 -9 -6.5 -21t-2.5 -28q0 -27 11.5 -46t40.5 -34
q12 -6 35 -13t59 -7t59 7t35 13q29 15 40.5 34t11.5 46q0 16 -2.5 28t-6.5 21z" />
    <glyph glyph-name="afii10057" unicode="&#xa3;" horiz-adv-x="497" 
d="M261 700v-496q0 -17 -4 -35.5t-19 -35.5q-14 -15 -30 -20t-33 -5q-18 0 -36 5t-33 13q-10 5 -20 12.5t-20 18.5l-71 -96q13 -11 36 -26.5t45 -25.5q8 -3 35 -12t72 -9q37 0 65.5 6.5t49.5 15.5t35 19.5t23 19.5q21 22 33.5 47.5t18.5 50.5t7.5 48.5t1.5 40.5v464h-156z
" />
    <glyph glyph-name="afii10057" unicode="&#x408;" horiz-adv-x="497" 
d="M261 700v-496q0 -17 -4 -35.5t-19 -35.5q-14 -15 -30 -20t-33 -5q-18 0 -36 5t-33 13q-10 5 -20 12.5t-20 18.5l-71 -96q13 -11 36 -26.5t45 -25.5q8 -3 35 -12t72 -9q37 0 65.5 6.5t49.5 15.5t35 19.5t23 19.5q21 22 33.5 47.5t18.5 50.5t7.5 48.5t1.5 40.5v464h-156z
" />
    <glyph glyph-name="currency" unicode="&#xa4;" horiz-adv-x="514" 
d="M46 490l37 -37q-20 -28 -29 -59.5t-9 -60.5t9 -60.5t29 -59.5l-37 -37l54 -54l37 37q14 -11 43 -24.5t77 -13.5t77 13.5t43 24.5l37 -37l54 54l-37 37q20 28 29 59.5t9 60.5t-9 60.5t-29 59.5l37 37l-54 54l-37 -37q-28 20 -59.5 29t-60.5 9t-60.5 -9t-59.5 -29l-37 37z
M151 333q0 45 30.5 75.5t75.5 30.5t75.5 -30.5t30.5 -75.5t-30.5 -75.5t-75.5 -30.5t-75.5 30.5t-30.5 75.5z" />
    <glyph glyph-name="afii10050" unicode="&#xa5;" horiz-adv-x="526" 
d="M95 700v-700h156v576h255v197h-142v-73h-269z" />
    <glyph glyph-name="afii10050" unicode="&#x490;" horiz-adv-x="526" 
d="M95 700v-700h156v576h255v197h-142v-73h-269z" />
    <glyph glyph-name="brokenbar" unicode="&#xa6;" horiz-adv-x="364" 
d="M116 724v-366h132v366h-132zM248 148h-132v-366h132v366z" />
    <glyph glyph-name="section" unicode="&#xa7;" horiz-adv-x="662" 
d="M595 537q-11 33 -35.5 66.5t-70.5 59.5q-16 9 -54.5 23t-98.5 14q-43 0 -87.5 -10.5t-78.5 -35.5q-36 -26 -53 -62.5t-17 -73.5q0 -16 3 -32.5t10 -33t19 -32t31 -28.5q-13 -9 -27 -21.5t-25 -30t-18.5 -39.5t-7.5 -49q0 -35 12 -61.5t33 -47.5q18 -18 38 -30t41 -21
t41.5 -15t38.5 -11l65 -17q16 -5 34 -11t32 -15.5t23.5 -23t9.5 -32.5q0 -14 -8 -27.5t-19 -21.5q-15 -11 -38 -15.5t-40 -4.5q-23 0 -46 6.5t-41 17.5q-12 8 -26.5 22.5t-24.5 40.5l-155 -22q20 -54 50.5 -86.5t58.5 -49.5q30 -19 73.5 -32t104.5 -13q42 0 91 9.5t93 40.5
q48 34 69.5 78.5t21.5 85.5q0 42 -19.5 77t-61.5 55q33 35 48 65.5t15 67.5q0 27 -6.5 48t-16 36t-20 25t-17.5 16q-16 12 -41 23t-70 27l-60 21q-40 14 -58 20.5t-28 15.5q-6 5 -11.5 14.5t-5.5 23.5q0 13 4.5 22t12.5 15q12 10 26.5 13t27.5 3q45 0 77 -20q11 -7 23 -20
t20 -33zM356 324q4 -1 11.5 -4t16 -7l17 -8t14.5 -7q16 -8 27.5 -20t11.5 -33q0 -17 -5.5 -27.5t-10.5 -18.5q-5 -7 -11.5 -13.5t-17.5 -14.5l-74 23q-32 10 -48 17.5t-24 12.5q-16 11 -25 25t-9 28q0 13 5 25.5t13 20.5q5 5 17 14t16 11z" />
    <glyph glyph-name="afii10023" unicode="&#xa8;" horiz-adv-x="571" 
d="M502 700h-407v-700h441v120h-285v187h251v120h-251v153h251v120zM344 835q0 -32 22 -54t54 -22q19 0 33 7t24 18.5t15 25t5 25.5t-5 25.5t-15 25t-24 18.5t-33 7q-32 0 -54 -22t-22 -54zM116 835q0 -12 5 -25.5t14.5 -25t24 -18.5t33.5 -7q32 0 54 22t22 54t-22 54
t-54 22q-19 0 -33.5 -7t-24 -18.5t-14.5 -25t-5 -25.5z" />
    <glyph glyph-name="afii10023" unicode="&#x401;" horiz-adv-x="571" 
d="M502 700h-407v-700h441v120h-285v187h251v120h-251v153h251v120zM344 835q0 -32 22 -54t54 -22q19 0 33 7t24 18.5t15 25t5 25.5t-5 25.5t-15 25t-24 18.5t-33 7q-32 0 -54 -22t-22 -54zM116 835q0 -12 5 -25.5t14.5 -25t24 -18.5t33.5 -7q32 0 54 22t22 54t-22 54
t-54 22q-19 0 -33.5 -7t-24 -18.5t-14.5 -25t-5 -25.5z" />
    <glyph glyph-name="copyright" unicode="&#xa9;" horiz-adv-x="814" 
d="M45 350q0 -23 3.5 -52.5t15 -63.5t32 -70t55.5 -70q43 -43 107 -74.5t149 -31.5t149 31.5t107 74.5q34 34 55 70t32.5 70t15 63.5t3.5 52.5q0 86 -31.5 150.5t-74.5 106.5q-52 51 -118 78t-138 27t-138 -27t-118 -78q-43 -42 -74.5 -106.5t-31.5 -150.5zM127 350
q0 59 22.5 112t61 92.5t89 62.5t107.5 23t107.5 -23t89 -62.5t61 -92.5t22.5 -112q0 -60 -22.5 -112.5t-61 -92t-89 -62t-107.5 -22.5t-107.5 22.5t-89 62t-61 92t-22.5 112.5zM541 270q-33 -22 -64.5 -29.5t-48.5 -7.5q-31 0 -48.5 9.5t-26 24.5t-10.5 32.5t-2 32.5v60
q0 7 1 20.5t7.5 26.5t20.5 22.5t39 9.5q6 0 14.5 -2t16 -8t13 -16t5.5 -25q0 -11 -3 -20l108 7q3 9 5 19t2 21q0 28 -13 48t-34.5 32t-49 17.5t-55.5 5.5q-69 0 -108 -23t-58.5 -55t-24 -66.5t-4.5 -56.5q0 -45 13.5 -84.5t56.5 -71.5q29 -22 58 -30.5t65 -8.5q10 0 27 1
t38 5.5t45 14.5t49 27z" />
    <glyph glyph-name="afii10053" unicode="&#xaa;" horiz-adv-x="649" 
d="M411 292v115h-206v24q0 32 9 64.5t28 55.5q23 28 51.5 34.5t54.5 6.5q17 0 32 -3t29 -14q24 -18 27 -41.5t-2 -40.5l140 11q20 51 2 97.5t-63 74.5q-38 23 -79 29.5t-76 6.5q-29 0 -59.5 -3t-61.5 -12t-60.5 -26t-55.5 -44q-30 -31 -46 -67t-24 -72.5t-9.5 -72
t-1.5 -65.5q0 -29 1.5 -61.5t8 -66.5t20.5 -68.5t40 -65.5q47 -57 108.5 -78.5t130.5 -21.5q60 0 122.5 20t127.5 73l-72 100q-33 -29 -79.5 -51t-96.5 -22q-35 0 -64 13t-50 43q-23 32 -28 65t-5 56v7h207z" />
    <glyph glyph-name="afii10053" unicode="&#x404;" horiz-adv-x="649" 
d="M411 292v115h-206v24q0 32 9 64.5t28 55.5q23 28 51.5 34.5t54.5 6.5q17 0 32 -3t29 -14q24 -18 27 -41.5t-2 -40.5l140 11q20 51 2 97.5t-63 74.5q-38 23 -79 29.5t-76 6.5q-29 0 -59.5 -3t-61.5 -12t-60.5 -26t-55.5 -44q-30 -31 -46 -67t-24 -72.5t-9.5 -72
t-1.5 -65.5q0 -29 1.5 -61.5t8 -66.5t20.5 -68.5t40 -65.5q47 -57 108.5 -78.5t130.5 -21.5q60 0 122.5 20t127.5 73l-72 100q-33 -29 -79.5 -51t-96.5 -22q-35 0 -64 13t-50 43q-23 32 -28 65t-5 56v7h207z" />
    <glyph glyph-name="guillemotleft" unicode="&#xab;" horiz-adv-x="515" 
d="M168 315l116 193h-118l-121 -193l121 -199h118zM379 315l116 193h-118l-121 -193l121 -199h118z" />
    <glyph glyph-name="logicalnot" unicode="&#xac;" horiz-adv-x="465" 
d="M30 347v-110h310v-77h95v188z" />
    <glyph glyph-name="hyphen" unicode="&#xad;" horiz-adv-x="295" 
d="M30 347v-110h235v110h-235z" />
    <glyph glyph-name="hyphen" unicode="&#x2010;" horiz-adv-x="295" 
d="M30 347v-110h235v110h-235z" />
    <glyph glyph-name="registered" unicode="&#xae;" horiz-adv-x="814" 
d="M45 350q0 -23 3.5 -52.5t15 -63.5t32 -70t55.5 -70q43 -43 107 -74.5t149 -31.5t149 31.5t107 74.5q34 34 55 70t32.5 70t15 63.5t3.5 52.5q0 86 -31.5 150.5t-74.5 106.5q-52 51 -118 78t-138 27t-138 -27t-118 -78q-43 -42 -74.5 -106.5t-31.5 -150.5zM127 350
q0 59 22.5 112t61 92.5t89 62.5t107.5 23t107.5 -23t89 -62.5t61 -92.5t22.5 -112q0 -60 -22.5 -112.5t-61 -92t-89 -62t-107.5 -22.5t-107.5 22.5t-89 62t-61 92t-22.5 112.5zM249 541v-378h112v141h31q6 0 12.5 -0.5t14.5 -5.5q10 -6 13 -13.5t7 -15.5l48 -106h118
l-65 132q-5 11 -9 18t-9.5 11.5t-12.5 7.5t-18 7v4q20 4 32.5 13t17.5 14q25 28 25 66q0 24 -10 44.5t-24 33.5q-22 19 -50 23t-46 4h-187zM361 462h58q18 0 30 -12.5t12 -29.5q0 -11 -9.5 -23.5t-37.5 -12.5h-53v78z" />
    <glyph glyph-name="afii10056" unicode="&#xaf;" horiz-adv-x="346" 
d="M95 0h156v700h-156v-700zM202 806q0 -25 17.5 -42.5t42.5 -17.5t42.5 17.5t17.5 42.5t-17.5 42.5t-42.5 17.5t-42.5 -17.5t-17.5 -42.5zM27 806q0 -25 17.5 -42.5t42.5 -17.5t42.5 17.5t17.5 42.5t-17.5 42.5t-42.5 17.5t-42.5 -17.5t-17.5 -42.5z" />
    <glyph glyph-name="afii10056" unicode="&#x407;" horiz-adv-x="346" 
d="M95 0h156v700h-156v-700zM202 806q0 -25 17.5 -42.5t42.5 -17.5t42.5 17.5t17.5 42.5t-17.5 42.5t-42.5 17.5t-42.5 -17.5t-17.5 -42.5zM27 806q0 -25 17.5 -42.5t42.5 -17.5t42.5 17.5t17.5 42.5t-17.5 42.5t-42.5 17.5t-42.5 -17.5t-17.5 -42.5z" />
    <glyph glyph-name="degree" unicode="&#xb0;" horiz-adv-x="370" 
d="M35 562q0 -31 12 -58.5t32 -47.5t47.5 -32t58.5 -12t58.5 12t47.5 32t32 47.5t12 58.5t-12 58.5t-32 47.5t-47.5 32t-58.5 12t-58.5 -12t-47.5 -32t-32 -47.5t-12 -58.5zM115 562q0 29 20.5 49.5t49.5 20.5t49.5 -20.5t20.5 -49.5t-20.5 -49.5t-49.5 -20.5t-49.5 20.5
t-20.5 49.5z" />
    <glyph glyph-name="plusminus" unicode="&#xb1;" horiz-adv-x="555" 
d="M219 545v-175h-176v-114h176v-99h113v99h176v114h-176v175h-113zM44 114v-114h465v114h-465z" />
    <glyph glyph-name="afii10055" unicode="&#xb2;" horiz-adv-x="346" 
d="M95 0h156v700h-156v-700z" />
    <glyph glyph-name="afii10055" unicode="&#x406;" horiz-adv-x="346" 
d="M95 0h156v700h-156v-700z" />
    <glyph glyph-name="afii10103" unicode="&#xb3;" horiz-adv-x="328" 
d="M35 494v-110h57v-384h146v494h-203zM79 636q0 -36 25 -61t61 -25t61 25t25 61t-25 61t-61 25t-61 -25t-25 -61z" />
    <glyph glyph-name="afii10103" unicode="&#x456;" horiz-adv-x="328" 
d="M35 494v-110h57v-384h146v494h-203zM79 636q0 -36 25 -61t61 -25t61 25t25 61t-25 61t-61 25t-61 -25t-25 -61z" />
    <glyph glyph-name="afii10098" unicode="&#xb4;" horiz-adv-x="456" 
d="M77 494v-494h146v384h228v172h-133v-62h-241z" />
    <glyph glyph-name="afii10098" unicode="&#x491;" horiz-adv-x="456" 
d="M77 494v-494h146v384h228v172h-133v-62h-241z" />
    <glyph glyph-name="mu" unicode="&#xb5;" horiz-adv-x="612" 
d="M389 494v-352q-7 -7 -16.5 -15.5t-18.5 -14.5q-29 -20 -60 -20q-15 0 -28 4t-24 15q-14 14 -16.5 29t-2.5 31v323h-146v-712h146v208q35 -5 72 0.5t64 20.5q14 8 29 20.5t26 25.5v-57h178v104h-57v390h-146z" />
    <glyph glyph-name="paragraph" unicode="&#xb6;" horiz-adv-x="693" 
d="M570 600h78v100h-339q-50 0 -98.5 -17t-81.5 -44q-39 -32 -59 -78t-20 -97q0 -42 18 -86t51 -76q35 -34 85 -52.5t98 -20.5v-447h100v818h68v-818h100v818z" />
    <glyph glyph-name="periodcentered" unicode="&#xb7;" horiz-adv-x="318" 
d="M70 326q0 -35 25.5 -58t63.5 -23t63.5 23t25.5 58t-25.5 58t-63.5 23t-63.5 -23t-25.5 -58z" />
    <glyph glyph-name="periodcentered" unicode="&#x22c5;" horiz-adv-x="318" 
d="M70 326q0 -35 25.5 -58t63.5 -23t63.5 23t25.5 58t-25.5 58t-63.5 23t-63.5 -23t-25.5 -58z" />
    <glyph glyph-name="periodcentered" unicode="&#x2219;" horiz-adv-x="318" 
d="M70 326q0 -35 25.5 -58t63.5 -23t63.5 23t25.5 58t-25.5 58t-63.5 23t-63.5 -23t-25.5 -58z" />
    <glyph glyph-name="afii10071" unicode="&#xb8;" horiz-adv-x="560" 
d="M204 212h309v49q0 14 -1.5 35.5t-7.5 46.5t-17.5 50.5t-32.5 47.5q-28 29 -71.5 47t-97.5 18q-52 0 -94.5 -16.5t-78.5 -54.5q-20 -22 -32.5 -43.5t-19 -44t-8.5 -45.5t-2 -48q0 -23 2 -48.5t9.5 -51t21 -50.5t36.5 -47q24 -24 51 -37.5t53.5 -20.5t51 -9t42.5 -2
q32 0 61.5 5t56.5 14q44 15 85 41l-49 90q-34 -20 -69 -31q-20 -6 -37 -9t-40 -3t-46 6t-43 23q-14 14 -23 33.5t-9 39.5v15zM204 302v17q0 26 7 42t15 26q9 11 23.5 19t35.5 8q27 0 41.5 -11t20.5 -20q11 -16 13.5 -34.5t2.5 -29.5v-17h-159zM323 624q0 -31 21.5 -52.5
t52.5 -21.5t52.5 21.5t21.5 52.5t-21.5 52.5t-52.5 21.5t-52.5 -21.5t-21.5 -52.5zM102 624q0 -31 21.5 -52.5t52.5 -21.5t52.5 21.5t21.5 52.5t-21.5 52.5t-52.5 21.5t-52.5 -21.5t-21.5 -52.5z" />
    <glyph glyph-name="afii10071" unicode="&#x451;" horiz-adv-x="560" 
d="M204 212h309v49q0 14 -1.5 35.5t-7.5 46.5t-17.5 50.5t-32.5 47.5q-28 29 -71.5 47t-97.5 18q-52 0 -94.5 -16.5t-78.5 -54.5q-20 -22 -32.5 -43.5t-19 -44t-8.5 -45.5t-2 -48q0 -23 2 -48.5t9.5 -51t21 -50.5t36.5 -47q24 -24 51 -37.5t53.5 -20.5t51 -9t42.5 -2
q32 0 61.5 5t56.5 14q44 15 85 41l-49 90q-34 -20 -69 -31q-20 -6 -37 -9t-40 -3t-46 6t-43 23q-14 14 -23 33.5t-9 39.5v15zM204 302v17q0 26 7 42t15 26q9 11 23.5 19t35.5 8q27 0 41.5 -11t20.5 -20q11 -16 13.5 -34.5t2.5 -29.5v-17h-159zM323 624q0 -31 21.5 -52.5
t52.5 -21.5t52.5 21.5t21.5 52.5t-21.5 52.5t-52.5 21.5t-52.5 -21.5t-21.5 -52.5zM102 624q0 -31 21.5 -52.5t52.5 -21.5t52.5 21.5t21.5 52.5t-21.5 52.5t-52.5 21.5t-52.5 -21.5t-21.5 -52.5z" />
    <glyph glyph-name="afii61352" unicode="&#xb9;" horiz-adv-x="1184" 
d="M515 700v-445h-6l-274 445h-140v-700h140v445h6l274 -445h140v700h-140zM922 629q-47 0 -76.5 -16.5t-46.5 -35.5q-20 -22 -32 -55t-12 -76t12 -76t32 -55q17 -19 46.5 -35.5t76.5 -16.5t76.5 16.5t46.5 35.5q20 22 32 55t12 76t-12 76t-32 55q-17 19 -46.5 35.5
t-76.5 16.5zM922 530q6 0 14 -2.5t16 -11.5q11 -14 14 -34t3 -36t-3 -36t-14 -34q-8 -9 -16 -11.5t-14 -2.5t-14 2.5t-16 11.5q-11 14 -14 34t-3 36t3 36t14 34q8 9 16 11.5t14 2.5zM765 212v-105h314v105h-314z" />
    <glyph glyph-name="afii61352" unicode="&#x2116;" horiz-adv-x="1184" 
d="M515 700v-445h-6l-274 445h-140v-700h140v445h6l274 -445h140v700h-140zM922 629q-47 0 -76.5 -16.5t-46.5 -35.5q-20 -22 -32 -55t-12 -76t12 -76t32 -55q17 -19 46.5 -35.5t76.5 -16.5t76.5 16.5t46.5 35.5q20 22 32 55t12 76t-12 76t-32 55q-17 19 -46.5 35.5
t-76.5 16.5zM922 530q6 0 14 -2.5t16 -11.5q11 -14 14 -34t3 -36t-3 -36t-14 -34q-8 -9 -16 -11.5t-14 -2.5t-14 2.5t-16 11.5q-11 14 -14 34t-3 36t3 36t14 34q8 9 16 11.5t14 2.5zM765 212v-105h314v105h-314z" />
    <glyph glyph-name="afii10101" unicode="&#xba;" horiz-adv-x="549" 
d="M495 355q14 38 2.5 72t-49.5 54q-14 7 -31.5 12t-37 8t-39 4t-37.5 1q-42 0 -90 -10.5t-90 -45.5q-48 -40 -63 -91.5t-15 -108.5t15 -105t45.5 -83t77 -54.5t110.5 -19.5q29 0 60.5 4.5t59.5 13.5q23 8 49 20.5t47 26.5l-57 88q-10 -7 -28 -17t-42 -19
q-21 -8 -39.5 -10.5t-40.5 -2.5q-20 0 -43 7t-40 28q-4 5 -12 20.5t-8 41.5v12h152v92h-152v19q0 19 5.5 42t25.5 40q12 10 29.5 15t31.5 5q11 0 25 -2.5t25 -7.5q19 -10 20 -27t-2 -27z" />
    <glyph glyph-name="afii10101" unicode="&#x454;" horiz-adv-x="549" 
d="M495 355q14 38 2.5 72t-49.5 54q-14 7 -31.5 12t-37 8t-39 4t-37.5 1q-42 0 -90 -10.5t-90 -45.5q-48 -40 -63 -91.5t-15 -108.5t15 -105t45.5 -83t77 -54.5t110.5 -19.5q29 0 60.5 4.5t59.5 13.5q23 8 49 20.5t47 26.5l-57 88q-10 -7 -28 -17t-42 -19
q-21 -8 -39.5 -10.5t-40.5 -2.5q-20 0 -43 7t-40 28q-4 5 -12 20.5t-8 41.5v12h152v92h-152v19q0 19 5.5 42t25.5 40q12 10 29.5 15t31.5 5q11 0 25 -2.5t25 -7.5q19 -10 20 -27t-2 -27z" />
    <glyph glyph-name="guillemotright" unicode="&#xbb;" horiz-adv-x="515" 
d="M372 315l-116 -199h118l121 199l-121 193h-118zM161 315l-116 -199h118l121 199l-121 193h-118z" />
    <glyph glyph-name="afii10105" unicode="&#xbc;" horiz-adv-x="328" 
d="M35 494v-110h57v-602h146v712h-203zM79 636q0 -36 25 -61t61 -25t61 25t25 61t-25 61t-61 25t-61 -25t-25 -61z" />
    <glyph glyph-name="afii10105" unicode="&#x458;" horiz-adv-x="328" 
d="M35 494v-110h57v-602h146v712h-203zM79 636q0 -36 25 -61t61 -25t61 25t25 61t-25 61t-61 25t-61 -25t-25 -61z" />
    <glyph glyph-name="afii10054" unicode="&#xbd;" horiz-adv-x="596" 
d="M40 87q23 -20 51 -38.5t57 -30.5q14 -6 51.5 -18t92.5 -12q66 0 115 18t81 47q23 21 36.5 42.5t20.5 43t9 42t2 37.5q0 39 -10 70t-34 58q-26 30 -58 44.5t-58 22.5l-71 21l-15 5t-19 6.5t-18.5 8t-14.5 9.5q-13 11 -17 24t-4 27q0 12 3.5 25.5t14.5 26.5q15 17 34 21.5
t35 4.5q46 0 82 -19q17 -9 35 -24.5t31 -30.5l76 95q-23 23 -42 37.5t-27 19.5q-40 25 -78.5 33.5t-84.5 8.5q-44 0 -90.5 -10.5t-84.5 -46.5q-20 -19 -31.5 -39.5t-17.5 -41t-7.5 -40t-1.5 -35.5q0 -25 7 -58t31 -63q23 -29 54.5 -44.5t54.5 -23.5l61 -21q24 -8 46 -14.5
t37 -19.5q17 -14 21.5 -30t4.5 -32q0 -14 -4 -27.5t-17 -27.5q-19 -20 -43 -25t-46 -5q-19 0 -37.5 3.5t-39.5 12.5q-23 10 -50 27t-47 35z" />
    <glyph glyph-name="afii10054" unicode="&#x405;" horiz-adv-x="596" 
d="M40 87q23 -20 51 -38.5t57 -30.5q14 -6 51.5 -18t92.5 -12q66 0 115 18t81 47q23 21 36.5 42.5t20.5 43t9 42t2 37.5q0 39 -10 70t-34 58q-26 30 -58 44.5t-58 22.5l-71 21l-15 5t-19 6.5t-18.5 8t-14.5 9.5q-13 11 -17 24t-4 27q0 12 3.5 25.5t14.5 26.5q15 17 34 21.5
t35 4.5q46 0 82 -19q17 -9 35 -24.5t31 -30.5l76 95q-23 23 -42 37.5t-27 19.5q-40 25 -78.5 33.5t-84.5 8.5q-44 0 -90.5 -10.5t-84.5 -46.5q-20 -19 -31.5 -39.5t-17.5 -41t-7.5 -40t-1.5 -35.5q0 -25 7 -58t31 -63q23 -29 54.5 -44.5t54.5 -23.5l61 -21q24 -8 46 -14.5
t37 -19.5q17 -14 21.5 -30t4.5 -32q0 -14 -4 -27.5t-17 -27.5q-19 -20 -43 -25t-46 -5q-19 0 -37.5 3.5t-39.5 12.5q-23 10 -50 27t-47 35z" />
    <glyph glyph-name="afii10102" unicode="&#xbe;" horiz-adv-x="492" 
d="M446 439q-34 28 -74 45q-32 13 -58.5 17.5t-62.5 4.5q-32 0 -65 -6t-63 -29q-9 -7 -19 -17.5t-19 -26t-14.5 -36t-5.5 -46.5q0 -32 8.5 -52.5t16.5 -31.5q23 -33 56.5 -45t70.5 -20q30 -6 50 -10.5t31 -14.5q7 -7 9 -14.5t2 -15.5t-3 -17t-13 -17q-11 -10 -25 -12.5
t-24 -2.5q-23 0 -42.5 4t-36.5 10q-21 8 -38 17t-34 23l-60 -83q18 -14 42.5 -29.5t45.5 -23.5q26 -11 60.5 -16.5t62.5 -5.5q66 0 105 18t59 36q29 27 40 57.5t11 57.5q0 34 -11.5 58t-28.5 40q-25 23 -55.5 33.5t-62.5 16.5q-22 5 -45.5 8.5t-35.5 17.5q-3 4 -6 10.5
t-3 16.5t3 17.5t12 14.5q9 8 18 10t21 2q22 0 40 -5t35 -13q29 -15 50 -31z" />
    <glyph glyph-name="afii10102" unicode="&#x455;" horiz-adv-x="492" 
d="M446 439q-34 28 -74 45q-32 13 -58.5 17.5t-62.5 4.5q-32 0 -65 -6t-63 -29q-9 -7 -19 -17.5t-19 -26t-14.5 -36t-5.5 -46.5q0 -32 8.5 -52.5t16.5 -31.5q23 -33 56.5 -45t70.5 -20q30 -6 50 -10.5t31 -14.5q7 -7 9 -14.5t2 -15.5t-3 -17t-13 -17q-11 -10 -25 -12.5
t-24 -2.5q-23 0 -42.5 4t-36.5 10q-21 8 -38 17t-34 23l-60 -83q18 -14 42.5 -29.5t45.5 -23.5q26 -11 60.5 -16.5t62.5 -5.5q66 0 105 18t59 36q29 27 40 57.5t11 57.5q0 34 -11.5 58t-28.5 40q-25 23 -55.5 33.5t-62.5 16.5q-22 5 -45.5 8.5t-35.5 17.5q-3 4 -6 10.5
t-3 16.5t3 17.5t12 14.5q9 8 18 10t21 2q22 0 40 -5t35 -13q29 -15 50 -31z" />
    <glyph glyph-name="afii10104" unicode="&#xbf;" horiz-adv-x="315" 
d="M35 494v-110h57v-384h146v494h-203zM181 607q0 -23 18 -41t42 -18q25 0 42 18.5t17 40.5q0 24 -17.5 42t-41.5 18t-42 -18t-18 -42zM15 607q0 -22 17 -40.5t42 -18.5q24 0 42 18t18 41q0 24 -18 42t-42 18t-41.5 -18t-17.5 -42z" />
    <glyph glyph-name="afii10104" unicode="&#x457;" horiz-adv-x="315" 
d="M35 494v-110h57v-384h146v494h-203zM181 607q0 -23 18 -41t42 -18q25 0 42 18.5t17 40.5q0 24 -17.5 42t-41.5 18t-42 -18t-18 -42zM15 607q0 -22 17 -40.5t42 -18.5q24 0 42 18t18 41q0 24 -18 42t-42 18t-41.5 -18t-17.5 -42z" />
    <glyph glyph-name="afii10017" unicode="&#xc0;" horiz-adv-x="676" 
d="M396 700h-116l-270 -700h145l63 168h212l66 -168h170zM257 288l20 57q13 35 24 74t19 69h6q12 -51 22.5 -80t19.5 -54l24 -66h-135z" />
    <glyph glyph-name="afii10017" unicode="&#x410;" horiz-adv-x="676" 
d="M396 700h-116l-270 -700h145l63 168h212l66 -168h170zM257 288l20 57q13 35 24 74t19 69h6q12 -51 22.5 -80t19.5 -54l24 -66h-135z" />
    <glyph glyph-name="afii10018" unicode="&#xc1;" horiz-adv-x="657" 
d="M95 0h218q24 0 51.5 1.5t56 7.5t56 18t51.5 32q32 27 53 69t21 91q0 11 -2 30.5t-10.5 42.5t-26 47.5t-47.5 45.5q-26 17 -54.5 26.5t-57 14t-55 5t-48.5 0.5h-50v145h289v124h-445v-700zM251 311h78q19 0 37.5 -3t38.5 -19q18 -14 25.5 -32t7.5 -39q0 -20 -6 -37
t-16 -28q-10 -12 -28.5 -22.5t-44.5 -10.5h-92v191z" />
    <glyph glyph-name="afii10018" unicode="&#x411;" horiz-adv-x="657" 
d="M95 0h218q24 0 51.5 1.5t56 7.5t56 18t51.5 32q32 27 53 69t21 91q0 11 -2 30.5t-10.5 42.5t-26 47.5t-47.5 45.5q-26 17 -54.5 26.5t-57 14t-55 5t-48.5 0.5h-50v145h289v124h-445v-700zM251 311h78q19 0 37.5 -3t38.5 -19q18 -14 25.5 -32t7.5 -39q0 -20 -6 -37
t-16 -28q-10 -12 -28.5 -22.5t-44.5 -10.5h-92v191z" />
    <glyph glyph-name="afii10019" unicode="&#xc2;" horiz-adv-x="671" 
d="M95 700v-700h242q23 0 50 1.5t54.5 7t53.5 16.5t47 29q26 23 45 63.5t19 91.5q0 26 -7 51.5t-24 49.5q-20 27 -42 38.5t-39 16.5v3q17 6 35 18.5t32 37.5q14 24 18 49t4 40q0 51 -16.5 85.5t-46.5 57.5q-21 15 -45.5 24t-50 13.5t-49.5 5.5t-43 1h-237zM251 580h91
q14 0 30 -3.5t30 -16.5q14 -14 17.5 -30.5t3.5 -31.5q0 -11 -4 -23.5t-13 -23.5q-16 -19 -36.5 -23t-39.5 -4h-79v156zM251 304h78q20 0 42.5 -3.5t40.5 -17.5q11 -8 20.5 -24.5t9.5 -45.5q0 -44 -24 -68q-16 -17 -36.5 -21t-35.5 -4h-95v184z" />
    <glyph glyph-name="afii10019" unicode="&#x412;" horiz-adv-x="671" 
d="M95 700v-700h242q23 0 50 1.5t54.5 7t53.5 16.5t47 29q26 23 45 63.5t19 91.5q0 26 -7 51.5t-24 49.5q-20 27 -42 38.5t-39 16.5v3q17 6 35 18.5t32 37.5q14 24 18 49t4 40q0 51 -16.5 85.5t-46.5 57.5q-21 15 -45.5 24t-50 13.5t-49.5 5.5t-43 1h-237zM251 580h91
q14 0 30 -3.5t30 -16.5q14 -14 17.5 -30.5t3.5 -31.5q0 -11 -4 -23.5t-13 -23.5q-16 -19 -36.5 -23t-39.5 -4h-79v156zM251 304h78q20 0 42.5 -3.5t40.5 -17.5q11 -8 20.5 -24.5t9.5 -45.5q0 -44 -24 -68q-16 -17 -36.5 -21t-35.5 -4h-95v184z" />
    <glyph glyph-name="afii10020" unicode="&#xc3;" horiz-adv-x="516" 
d="M496 700h-401v-700h156v576h245v124z" />
    <glyph glyph-name="afii10020" unicode="&#x413;" horiz-adv-x="516" 
d="M496 700h-401v-700h156v576h245v124z" />
    <glyph glyph-name="afii10021" unicode="&#xc4;" horiz-adv-x="689" 
d="M584 700h-412l-3 -168q0 -17 -1.5 -44.5t-5 -61t-9.5 -71.5t-15 -76q-12 -47 -27 -84t-42 -75h-54v-258h145v138h359v-138h145v258h-80v580zM428 120h-208q14 24 29.5 60t26.5 84q10 43 16 100t9 138l3 78h124v-460z" />
    <glyph glyph-name="afii10021" unicode="&#x414;" horiz-adv-x="689" 
d="M584 700h-412l-3 -168q0 -17 -1.5 -44.5t-5 -61t-9.5 -71.5t-15 -76q-12 -47 -27 -84t-42 -75h-54v-258h145v138h359v-138h145v258h-80v580zM428 120h-208q14 24 29.5 60t26.5 84q10 43 16 100t9 138l3 78h124v-460z" />
    <glyph glyph-name="afii10022" unicode="&#xc5;" horiz-adv-x="571" 
d="M502 700h-407v-700h441v120h-285v187h251v120h-251v153h251v120z" />
    <glyph glyph-name="afii10022" unicode="&#x415;" horiz-adv-x="571" 
d="M502 700h-407v-700h441v120h-285v187h251v120h-251v153h251v120z" />
    <glyph glyph-name="afii10024" unicode="&#xc6;" horiz-adv-x="928" 
d="M542 700h-156v-273h-35q-11 0 -24.5 3t-21.5 10q-8 6 -15 21t-11 27l-34 104q-14 43 -32.5 68.5t-49.5 38.5t-68 13q-17 0 -37.5 -3.5t-45.5 -14.5l24 -113q8 5 19 8t22 3q20 0 32 -15q8 -10 12.5 -25.5t11.5 -37.5l11 -36q6 -19 15.5 -39t20.5 -33q11 -12 26 -21t33 -14
v-3q-39 -6 -61.5 -24.5t-33.5 -32.5q-15 -20 -24 -40t-16 -40l-78 -231h163l66 197q15 45 25.5 63t15.5 23q11 11 28.5 17.5t35.5 6.5h26v-307h156v307h26q18 0 35.5 -6.5t28.5 -17.5q5 -5 15.5 -23t25.5 -63l66 -197h163l-78 231q-7 20 -16 40t-24 40q-11 14 -33.5 32.5
t-61.5 24.5v3q18 5 33 14t26 21q11 13 20.5 33t15.5 39l11 36q7 22 11.5 37.5t12.5 25.5q12 15 32 15q11 0 22 -3t19 -8l24 113q-25 11 -45.5 14.5t-37.5 3.5q-37 0 -68 -13t-49.5 -38.5t-32.5 -68.5l-34 -104q-4 -12 -11 -27t-15 -21q-8 -7 -21.5 -10t-24.5 -3h-35v273z
" />
    <glyph glyph-name="afii10024" unicode="&#x416;" horiz-adv-x="928" 
d="M542 700h-156v-273h-35q-11 0 -24.5 3t-21.5 10q-8 6 -15 21t-11 27l-34 104q-14 43 -32.5 68.5t-49.5 38.5t-68 13q-17 0 -37.5 -3.5t-45.5 -14.5l24 -113q8 5 19 8t22 3q20 0 32 -15q8 -10 12.5 -25.5t11.5 -37.5l11 -36q6 -19 15.5 -39t20.5 -33q11 -12 26 -21t33 -14
v-3q-39 -6 -61.5 -24.5t-33.5 -32.5q-15 -20 -24 -40t-16 -40l-78 -231h163l66 197q15 45 25.5 63t15.5 23q11 11 28.5 17.5t35.5 6.5h26v-307h156v307h26q18 0 35.5 -6.5t28.5 -17.5q5 -5 15.5 -23t25.5 -63l66 -197h163l-78 231q-7 20 -16 40t-24 40q-11 14 -33.5 32.5
t-61.5 24.5v3q18 5 33 14t26 21q11 13 20.5 33t15.5 39l11 36q7 22 11.5 37.5t12.5 25.5q12 15 32 15q11 0 22 -3t19 -8l24 113q-25 11 -45.5 14.5t-37.5 3.5q-37 0 -68 -13t-49.5 -38.5t-32.5 -68.5l-34 -104q-4 -12 -11 -27t-15 -21q-8 -7 -21.5 -10t-24.5 -3h-35v273z
" />
    <glyph glyph-name="afii10025" unicode="&#xc7;" horiz-adv-x="624" 
d="M233 302h62q18 0 42.5 -3.5t45.5 -18.5q23 -17 27.5 -36.5t4.5 -39.5q0 -13 -3.5 -28t-15.5 -30q-11 -13 -35.5 -25.5t-70.5 -12.5q-11 0 -38 3t-61 17q-29 11 -49.5 25t-34.5 28l-72 -100q9 -8 37 -27t66 -36q39 -17 77 -23.5t80 -6.5q22 0 48 2t52.5 8t53 17.5
t50.5 29.5q13 10 27 24t26 33.5t19.5 44t7.5 55.5q0 32 -9 59t-25 47q-17 21 -43 36t-55 21v3q19 5 41.5 18.5t42.5 43.5q14 22 19.5 44t5.5 45q0 41 -14.5 75.5t-47.5 61.5q-24 19 -52.5 30.5t-56.5 17t-52.5 7t-40.5 1.5q-42 0 -83.5 -6.5t-78.5 -29.5q-48 -29 -64 -77
t3 -97l138 -11q-3 10 -4 21.5t2 23.5t10.5 23.5t21.5 19.5q17 10 31.5 11.5t28.5 1.5q20 0 38 -4.5t33 -21.5q14 -15 16.5 -32.5t2.5 -32.5q0 -19 -6 -32t-13 -22q-16 -19 -36 -24.5t-40 -5.5h-59v-115z" />
    <glyph glyph-name="afii10025" unicode="&#x417;" horiz-adv-x="624" 
d="M233 302h62q18 0 42.5 -3.5t45.5 -18.5q23 -17 27.5 -36.5t4.5 -39.5q0 -13 -3.5 -28t-15.5 -30q-11 -13 -35.5 -25.5t-70.5 -12.5q-11 0 -38 3t-61 17q-29 11 -49.5 25t-34.5 28l-72 -100q9 -8 37 -27t66 -36q39 -17 77 -23.5t80 -6.5q22 0 48 2t52.5 8t53 17.5
t50.5 29.5q13 10 27 24t26 33.5t19.5 44t7.5 55.5q0 32 -9 59t-25 47q-17 21 -43 36t-55 21v3q19 5 41.5 18.5t42.5 43.5q14 22 19.5 44t5.5 45q0 41 -14.5 75.5t-47.5 61.5q-24 19 -52.5 30.5t-56.5 17t-52.5 7t-40.5 1.5q-42 0 -83.5 -6.5t-78.5 -29.5q-48 -29 -64 -77
t3 -97l138 -11q-3 10 -4 21.5t2 23.5t10.5 23.5t21.5 19.5q17 10 31.5 11.5t28.5 1.5q20 0 38 -4.5t33 -21.5q14 -15 16.5 -32.5t2.5 -32.5q0 -19 -6 -32t-13 -22q-16 -19 -36 -24.5t-40 -5.5h-59v-115z" />
    <glyph glyph-name="afii10026" unicode="&#xc8;" horiz-adv-x="777" 
d="M682 700h-152l-280 -459h-5l6 179v280h-156v-700h152l280 459h5l-6 -179v-280h156v700z" />
    <glyph glyph-name="afii10026" unicode="&#x418;" horiz-adv-x="777" 
d="M682 700h-152l-280 -459h-5l6 179v280h-156v-700h152l280 459h5l-6 -179v-280h156v700z" />
    <glyph glyph-name="afii10027" unicode="&#xc9;" horiz-adv-x="778" 
d="M683 700h-152l-281 -459h-5l6 179v280h-156v-700h152l281 459h5l-6 -179v-280h156v700zM440 917l1 -5q1 -5 2 -7.5t1 -13.5q0 -10 -1.5 -17.5t-10.5 -15.5t-20.5 -10t-22.5 -2t-22.5 2t-20.5 10t-10.5 15.5t-1.5 17.5q0 11 1 13.5t2 7.5l1 5l-104 6q-8 -12 -9.5 -22.5
t-1.5 -24.5q0 -32 10.5 -53.5t41.5 -38.5q26 -14 55.5 -19.5t58.5 -5.5t58.5 5.5t55.5 19.5q31 17 41.5 38.5t10.5 53.5q0 14 -1.5 24.5t-9.5 22.5z" />
    <glyph glyph-name="afii10027" unicode="&#x419;" horiz-adv-x="778" 
d="M683 700h-152l-281 -459h-5l6 179v280h-156v-700h152l281 459h5l-6 -179v-280h156v700zM440 917l1 -5q1 -5 2 -7.5t1 -13.5q0 -10 -1.5 -17.5t-10.5 -15.5t-20.5 -10t-22.5 -2t-22.5 2t-20.5 10t-10.5 15.5t-1.5 17.5q0 11 1 13.5t2 7.5l1 5l-104 6q-8 -12 -9.5 -22.5
t-1.5 -24.5q0 -32 10.5 -53.5t41.5 -38.5q26 -14 55.5 -19.5t58.5 -5.5t58.5 5.5t55.5 19.5q31 17 41.5 38.5t10.5 53.5q0 14 -1.5 24.5t-9.5 22.5z" />
    <glyph glyph-name="afii10028" unicode="&#xca;" horiz-adv-x="678" 
d="M251 700h-156v-700h156v307h60q18 0 35.5 -6.5t28.5 -17.5q5 -5 15.5 -23t25.5 -63l66 -197h167l-78 231q-7 20 -16 40t-24 40q-11 14 -33.5 32.5t-61.5 24.5v3q18 5 33 14t26 21q11 13 20.5 33t15.5 39l11 36q7 22 11.5 37.5t12.5 25.5q12 15 32 15q11 0 22 -3t19 -8
l24 113q-24 11 -45 14.5t-42 3.5q-36 0 -68 -13q-31 -13 -49.5 -38.5t-32.5 -68.5l-34 -104q-4 -12 -11 -27t-15 -21q-8 -7 -21.5 -10t-24.5 -3h-69v273z" />
    <glyph glyph-name="afii10028" unicode="&#x41a;" horiz-adv-x="678" 
d="M251 700h-156v-700h156v307h60q18 0 35.5 -6.5t28.5 -17.5q5 -5 15.5 -23t25.5 -63l66 -197h167l-78 231q-7 20 -16 40t-24 40q-11 14 -33.5 32.5t-61.5 24.5v3q18 5 33 14t26 21q11 13 20.5 33t15.5 39l11 36q7 22 11.5 37.5t12.5 25.5q12 15 32 15q11 0 22 -3t19 -8
l24 113q-24 11 -45 14.5t-42 3.5q-36 0 -68 -13q-31 -13 -49.5 -38.5t-32.5 -68.5l-34 -104q-4 -12 -11 -27t-15 -21q-8 -7 -21.5 -10t-24.5 -3h-69v273z" />
    <glyph glyph-name="afii10029" unicode="&#xcb;" horiz-adv-x="668" 
d="M417 576v-576h156v700h-424l-4 -143q-1 -24 -2 -53.5t-2.5 -60t-3.5 -58.5t-3 -48q-3 -37 -6 -62t-6.5 -42t-7 -28t-7.5 -19q-17 -34 -46.5 -47.5t-70.5 -11.5l13 -139q60 -3 109 12t84 47q21 20 34.5 43t21.5 46t12 45t6 40q7 51 11 110t6 116l4 129h126z" />
    <glyph glyph-name="afii10029" unicode="&#x41b;" horiz-adv-x="668" 
d="M417 576v-576h156v700h-424l-4 -143q-1 -24 -2 -53.5t-2.5 -60t-3.5 -58.5t-3 -48q-3 -37 -6 -62t-6.5 -42t-7 -28t-7.5 -19q-17 -34 -46.5 -47.5t-70.5 -11.5l13 -139q60 -3 109 12t84 47q21 20 34.5 43t21.5 46t12 45t6 40q7 51 11 110t6 116l4 129h126z" />
    <glyph glyph-name="afii10030" unicode="&#xcc;" horiz-adv-x="821" 
d="M95 0h144v236l-5 189h7l128 -266h71l130 266h8l-8 -189v-236h156v700h-156l-158 -320l-163 320h-154v-700z" />
    <glyph glyph-name="afii10030" unicode="&#x41c;" horiz-adv-x="821" 
d="M95 0h144v236l-5 189h7l128 -266h71l130 266h8l-8 -189v-236h156v700h-156l-158 -320l-163 320h-154v-700z" />
    <glyph glyph-name="afii10031" unicode="&#xcd;" horiz-adv-x="750" 
d="M655 700h-156v-274h-248v274h-156v-700h156v302h248v-302h156v700z" />
    <glyph glyph-name="afii10031" unicode="&#x41d;" horiz-adv-x="750" 
d="M655 700h-156v-274h-248v274h-156v-700h156v302h248v-302h156v700z" />
    <glyph glyph-name="afii10032" unicode="&#xce;" horiz-adv-x="722" 
d="M361 712q-44 0 -79 -8.5t-62 -22t-47 -30t-33 -31.5q-27 -30 -42.5 -64.5t-24 -70.5t-11 -70.5t-2.5 -64.5t2.5 -64.5t11 -70.5t24 -70.5t42.5 -64.5q13 -15 33 -31.5t47 -30t62 -22t79 -8.5t79 8.5t62 22t46.5 30t33.5 31.5q27 30 42.5 64.5t24 70.5t11 70.5t2.5 64.5
t-2.5 64.5t-11 70.5t-24 70.5t-42.5 64.5q-14 15 -33.5 31.5t-46.5 30t-62 22t-79 8.5zM498 316q0 -65 -10 -106t-30 -64q-13 -14 -37 -26t-60 -12t-60 12t-37 26q-20 23 -30 64t-10 106v69q0 125 40 169q13 14 37 26t60 12q21 0 36.5 -4t27.5 -10t20 -12.5t13 -11.5
q15 -17 23 -39.5t11.5 -46t4.5 -46t1 -37.5v-69z" />
    <glyph glyph-name="afii10032" unicode="&#x41e;" horiz-adv-x="722" 
d="M361 712q-44 0 -79 -8.5t-62 -22t-47 -30t-33 -31.5q-27 -30 -42.5 -64.5t-24 -70.5t-11 -70.5t-2.5 -64.5t2.5 -64.5t11 -70.5t24 -70.5t42.5 -64.5q13 -15 33 -31.5t47 -30t62 -22t79 -8.5t79 8.5t62 22t46.5 30t33.5 31.5q27 30 42.5 64.5t24 70.5t11 70.5t2.5 64.5
t-2.5 64.5t-11 70.5t-24 70.5t-42.5 64.5q-14 15 -33.5 31.5t-46.5 30t-62 22t-79 8.5zM498 316q0 -65 -10 -106t-30 -64q-13 -14 -37 -26t-60 -12t-60 12t-37 26q-20 23 -30 64t-10 106v69q0 125 40 169q13 14 37 26t60 12q21 0 36.5 -4t27.5 -10t20 -12.5t13 -11.5
q15 -17 23 -39.5t11.5 -46t4.5 -46t1 -37.5v-69z" />
    <glyph glyph-name="afii10033" unicode="&#xcf;" horiz-adv-x="737" 
d="M642 700h-547v-700h156v576h235v-576h156v700z" />
    <glyph glyph-name="afii10033" unicode="&#x41f;" horiz-adv-x="737" 
d="M642 700h-547v-700h156v576h235v-576h156v700z" />
    <glyph glyph-name="afii10034" unicode="&#xd0;" horiz-adv-x="651" 
d="M95 700v-700h156v283h105q42 0 74 6t56 15.5t40 21t27 21.5q25 24 41.5 61.5t16.5 87.5q0 55 -20.5 94.5t-58.5 65.5q-44 30 -94 37t-96 7h-247zM251 580h91q19 0 41 -4.5t39 -20.5q10 -9 17.5 -25t7.5 -41q0 -18 -7 -34.5t-18 -27.5q-9 -9 -21.5 -13.5t-24.5 -7t-22 -3
t-14 -0.5h-89v177z" />
    <glyph glyph-name="afii10034" unicode="&#x420;" horiz-adv-x="651" 
d="M95 700v-700h156v283h105q42 0 74 6t56 15.5t40 21t27 21.5q25 24 41.5 61.5t16.5 87.5q0 55 -20.5 94.5t-58.5 65.5q-44 30 -94 37t-96 7h-247zM251 580h91q19 0 41 -4.5t39 -20.5q10 -9 17.5 -25t7.5 -41q0 -18 -7 -34.5t-18 -27.5q-9 -9 -21.5 -13.5t-24.5 -7t-22 -3
t-14 -0.5h-89v177z" />
    <glyph glyph-name="afii10035" unicode="&#xd1;" horiz-adv-x="667" 
d="M594 483q10 28 10.5 56t-7.5 53t-24 46t-40 36q-21 13 -46.5 21t-50 11.5t-45 4.5t-31.5 1q-25 0 -53 -3t-56.5 -12t-56.5 -26t-53 -45q-26 -29 -42 -64t-24.5 -71.5t-11.5 -72.5t-3 -68q0 -31 3 -65t12 -69t25 -69t42 -64q15 -17 35.5 -33.5t49 -30.5t64.5 -22.5
t81 -8.5q51 0 88.5 10t50.5 15q25 9 51.5 23t54.5 34l-62 106q-14 -12 -32 -23.5t-37 -19.5q-26 -11 -55 -16t-52 -5q-38 0 -67 13t-45 30q-13 14 -21.5 34.5t-13 43.5t-6.5 46t-2 43v58q0 24 1.5 48.5t5.5 47.5t11.5 43.5t20.5 35.5q19 23 41 30t45 7q32 0 50.5 -7.5
t27.5 -15.5q19 -17 22 -43.5t-1 -52.5z" />
    <glyph glyph-name="afii10035" unicode="&#x421;" horiz-adv-x="667" 
d="M594 483q10 28 10.5 56t-7.5 53t-24 46t-40 36q-21 13 -46.5 21t-50 11.5t-45 4.5t-31.5 1q-25 0 -53 -3t-56.5 -12t-56.5 -26t-53 -45q-26 -29 -42 -64t-24.5 -71.5t-11.5 -72.5t-3 -68q0 -31 3 -65t12 -69t25 -69t42 -64q15 -17 35.5 -33.5t49 -30.5t64.5 -22.5
t81 -8.5q51 0 88.5 10t50.5 15q25 9 51.5 23t54.5 34l-62 106q-14 -12 -32 -23.5t-37 -19.5q-26 -11 -55 -16t-52 -5q-38 0 -67 13t-45 30q-13 14 -21.5 34.5t-13 43.5t-6.5 46t-2 43v58q0 24 1.5 48.5t5.5 47.5t11.5 43.5t20.5 35.5q19 23 41 30t45 7q32 0 50.5 -7.5
t27.5 -15.5q19 -17 22 -43.5t-1 -52.5z" />
    <glyph glyph-name="afii10036" unicode="&#xd2;" horiz-adv-x="570" 
d="M363 0v576h192v124h-540v-124h192v-576h156z" />
    <glyph glyph-name="afii10036" unicode="&#x422;" horiz-adv-x="570" 
d="M363 0v576h192v124h-540v-124h192v-576h156z" />
    <glyph glyph-name="afii10037" unicode="&#xd3;" horiz-adv-x="607" 
d="M10 700l249 -506l-13 -28q-14 -31 -26 -44.5t-34 -13.5q-17 0 -36.5 7t-36.5 19l-49 -106q42 -26 74 -33t54 -7q42 0 76 12t66 47q25 27 38.5 55.5t25.5 57.5l224 540h-152l-78 -202q-13 -33 -27.5 -77t-24.5 -77h-4q-11 35 -24.5 73t-32.5 82l-88 201h-181z" />
    <glyph glyph-name="afii10037" unicode="&#x423;" horiz-adv-x="607" 
d="M10 700l249 -506l-13 -28q-14 -31 -26 -44.5t-34 -13.5q-17 0 -36.5 7t-36.5 19l-49 -106q42 -26 74 -33t54 -7q42 0 76 12t66 47q25 27 38.5 55.5t25.5 57.5l224 540h-152l-78 -202q-13 -33 -27.5 -77t-24.5 -77h-4q-11 35 -24.5 73t-32.5 82l-88 201h-181z" />
    <glyph glyph-name="afii10038" unicode="&#xd4;" horiz-adv-x="844" 
d="M500 726h-156v-85q-41 0 -93 -10t-98 -40t-77 -85t-31 -145q0 -61 15 -105.5t40 -75t56.5 -50t64.5 -30t65.5 -14t57.5 -3.5v-95h156v95q25 0 57.5 3.5t65.5 14t64.5 30t56.5 50t40 75t15 105.5q0 60 -14.5 104t-38.5 75t-55 51t-64.5 31t-66.5 15t-60 4v85zM495 526h13
q31 0 58 -10.5t43 -27.5q15 -17 22.5 -43t7.5 -54v-58q0 -28 -7.5 -54t-22.5 -43q-16 -17 -43 -27.5t-58 -10.5h-13v328zM349 526v-328h-13q-31 0 -58 10.5t-43 27.5q-15 17 -22.5 43t-7.5 54v58q0 28 7.5 54t22.5 43q16 17 43 27.5t58 10.5h13z" />
    <glyph glyph-name="afii10038" unicode="&#x424;" horiz-adv-x="844" 
d="M500 726h-156v-85q-41 0 -93 -10t-98 -40t-77 -85t-31 -145q0 -61 15 -105.5t40 -75t56.5 -50t64.5 -30t65.5 -14t57.5 -3.5v-95h156v95q25 0 57.5 3.5t65.5 14t64.5 30t56.5 50t40 75t15 105.5q0 60 -14.5 104t-38.5 75t-55 51t-64.5 31t-66.5 15t-60 4v85zM495 526h13
q31 0 58 -10.5t43 -27.5q15 -17 22.5 -43t7.5 -54v-58q0 -28 -7.5 -54t-22.5 -43q-16 -17 -43 -27.5t-58 -10.5h-13v328zM349 526v-328h-13q-31 0 -58 10.5t-43 27.5q-15 17 -22.5 43t-7.5 54v58q0 28 7.5 54t22.5 43q16 17 43 27.5t58 10.5h13z" />
    <glyph glyph-name="afii10039" unicode="&#xd5;" horiz-adv-x="652" 
d="M23 700l209 -337l-227 -363h155l150 251l149 -251h188l-230 375l201 325h-152l-128 -218l-126 218h-189z" />
    <glyph glyph-name="afii10039" unicode="&#x425;" horiz-adv-x="652" 
d="M23 700l209 -337l-227 -363h155l150 251l149 -251h188l-230 375l201 325h-152l-128 -218l-126 218h-189z" />
    <glyph glyph-name="afii10040" unicode="&#xd6;" horiz-adv-x="736" 
d="M475 700v-580h-224v580h-156v-700h471v-138h145v258h-80v580h-156z" />
    <glyph glyph-name="afii10040" unicode="&#x426;" horiz-adv-x="736" 
d="M475 700v-580h-224v580h-156v-700h471v-138h145v258h-80v580h-156z" />
    <glyph glyph-name="afii10041" unicode="&#xd7;" horiz-adv-x="700" 
d="M605 700h-156v-300q-32 -11 -62.5 -14t-53.5 -3q-19 0 -40.5 4.5t-39.5 21.5q-17 17 -22 36t-5 36v219h-156v-210q0 -23 2 -48t9.5 -49t22 -46.5t39.5 -40.5q21 -15 45.5 -24t49 -13t46 -5t35.5 -1q60 0 130 17v-280h156v700z" />
    <glyph glyph-name="afii10041" unicode="&#x427;" horiz-adv-x="700" 
d="M605 700h-156v-300q-32 -11 -62.5 -14t-53.5 -3q-19 0 -40.5 4.5t-39.5 21.5q-17 17 -22 36t-5 36v219h-156v-210q0 -23 2 -48t9.5 -49t22 -46.5t39.5 -40.5q21 -15 45.5 -24t49 -13t46 -5t35.5 -1q60 0 130 17v-280h156v700z" />
    <glyph glyph-name="afii10042" unicode="&#xd8;" horiz-adv-x="978" 
d="M95 700v-700h788v700h-156v-576h-160v576h-156v-576h-160v576h-156z" />
    <glyph glyph-name="afii10042" unicode="&#x428;" horiz-adv-x="978" 
d="M95 700v-700h788v700h-156v-576h-160v576h-156v-576h-160v576h-156z" />
    <glyph glyph-name="afii10043" unicode="&#xd9;" horiz-adv-x="988" 
d="M95 700v-700h723v-138h145v258h-80v580h-156v-576h-160v576h-156v-576h-160v576h-156z" />
    <glyph glyph-name="afii10043" unicode="&#x429;" horiz-adv-x="988" 
d="M95 700v-700h723v-138h145v258h-80v580h-156v-576h-160v576h-156v-576h-160v576h-156z" />
    <glyph glyph-name="afii10044" unicode="&#xda;" horiz-adv-x="708" 
d="M5 700v-124h156v-576h213q24 0 51 1.5t55.5 7.5t56.5 18t52 32q33 27 53.5 69t20.5 91q0 12 -2 32t-10.5 44t-26 49t-47.5 46q-26 19 -54.5 28.5t-56 14t-54.5 5t-50 0.5h-45v262h-312zM317 318h73q20 0 38 -3.5t38 -20.5q19 -17 26 -35.5t7 -40.5q0 -20 -6 -36.5
t-16 -28.5q-11 -12 -29 -22.5t-44 -10.5h-87v198z" />
    <glyph glyph-name="afii10044" unicode="&#x42a;" horiz-adv-x="708" 
d="M5 700v-124h156v-576h213q24 0 51 1.5t55.5 7.5t56.5 18t52 32q33 27 53.5 69t20.5 91q0 12 -2 32t-10.5 44t-26 49t-47.5 46q-26 19 -54.5 28.5t-56 14t-54.5 5t-50 0.5h-45v262h-312zM317 318h73q20 0 38 -3.5t38 -20.5q19 -17 26 -35.5t7 -40.5q0 -20 -6 -36.5
t-16 -28.5q-11 -12 -29 -22.5t-44 -10.5h-87v198z" />
    <glyph glyph-name="afii10045" unicode="&#xdb;" horiz-adv-x="938" 
d="M95 0h213q24 0 51 1.5t55.5 7.5t56.5 18t52 32q32 27 53 69t21 93q0 32 -7.5 58t-19.5 47t-27.5 37t-31.5 27q-23 16 -47 25.5t-48.5 14.5t-49 6.5t-47.5 1.5h-68v262h-156v-700zM251 318h73q19 0 37.5 -3t38.5 -20q12 -11 22.5 -29t10.5 -48q0 -20 -6 -37.5t-16 -28.5
q-12 -14 -32 -23t-41 -9h-87v198zM687 0h156v700h-156v-700z" />
    <glyph glyph-name="afii10045" unicode="&#x42b;" horiz-adv-x="938" 
d="M95 0h213q24 0 51 1.5t55.5 7.5t56.5 18t52 32q32 27 53 69t21 93q0 32 -7.5 58t-19.5 47t-27.5 37t-31.5 27q-23 16 -47 25.5t-48.5 14.5t-49 6.5t-47.5 1.5h-68v262h-156v-700zM251 318h73q19 0 37.5 -3t38.5 -20q12 -11 22.5 -29t10.5 -48q0 -20 -6 -37.5t-16 -28.5
q-12 -14 -32 -23t-41 -9h-87v198zM687 0h156v700h-156v-700z" />
    <glyph glyph-name="afii10046" unicode="&#xdc;" horiz-adv-x="642" 
d="M95 0h213q24 0 51 1.5t55.5 7.5t56.5 18t52 32q32 27 53 69t21 93q0 32 -7.5 58t-19.5 47t-27.5 37t-31.5 27q-23 16 -47 25.5t-48.5 14.5t-49 6.5t-47.5 1.5h-68v262h-156v-700zM251 318h73q19 0 37.5 -3t38.5 -20q12 -11 22.5 -29t10.5 -48q0 -20 -6 -37.5t-16 -28.5
q-12 -14 -32 -23t-41 -9h-87v198z" />
    <glyph glyph-name="afii10046" unicode="&#x42c;" horiz-adv-x="642" 
d="M95 0h213q24 0 51 1.5t55.5 7.5t56.5 18t52 32q32 27 53 69t21 93q0 32 -7.5 58t-19.5 47t-27.5 37t-31.5 27q-23 16 -47 25.5t-48.5 14.5t-49 6.5t-47.5 1.5h-68v262h-156v-700zM251 318h73q19 0 37.5 -3t38.5 -20q12 -11 22.5 -29t10.5 -48q0 -20 -6 -37.5t-16 -28.5
q-12 -14 -32 -23t-41 -9h-87v198z" />
    <glyph glyph-name="afii10047" unicode="&#xdd;" horiz-adv-x="649" 
d="M228 292h207v-7q0 -23 -5 -56t-28 -65q-21 -30 -50 -43t-64 -13q-50 0 -96.5 22t-79.5 51l-72 -100q65 -53 127.5 -73t122.5 -20q69 0 130.5 21.5t108.5 78.5q25 31 39.5 65.5t21 68.5t8 66.5t1.5 61.5q0 30 -1.5 65.5t-9.5 72t-24 72.5t-46 67q-26 27 -56 44t-60.5 26
t-61.5 12t-59 3q-35 0 -76 -6.5t-79 -29.5q-45 -28 -63 -74.5t2 -97.5l140 -11q-5 17 -2 40.5t27 41.5q14 11 29 14t32 3q26 0 54.5 -6.5t51.5 -34.5q19 -23 28 -55.5t9 -64.5v-24h-206v-115z" />
    <glyph glyph-name="afii10047" unicode="&#x42d;" horiz-adv-x="649" 
d="M228 292h207v-7q0 -23 -5 -56t-28 -65q-21 -30 -50 -43t-64 -13q-50 0 -96.5 22t-79.5 51l-72 -100q65 -53 127.5 -73t122.5 -20q69 0 130.5 21.5t108.5 78.5q25 31 39.5 65.5t21 68.5t8 66.5t1.5 61.5q0 30 -1.5 65.5t-9.5 72t-24 72.5t-46 67q-26 27 -56 44t-60.5 26
t-61.5 12t-59 3q-35 0 -76 -6.5t-79 -29.5q-45 -28 -63 -74.5t2 -97.5l140 -11q-5 17 -2 40.5t27 41.5q14 11 29 14t32 3q26 0 54.5 -6.5t51.5 -34.5q19 -23 28 -55.5t9 -64.5v-24h-206v-115z" />
    <glyph glyph-name="afii10048" unicode="&#xde;" horiz-adv-x="989" 
d="M251 426v274h-156v-700h156v302h82q1 -60 19 -116.5t54 -100.5t91 -70.5t131 -26.5q44 0 79 8.5t62 22t46.5 30t33.5 31.5q27 30 42.5 64.5t24 70.5t11 70.5t2.5 64.5t-2.5 64.5t-11 70.5t-24 70.5t-42.5 64.5q-14 15 -33.5 31.5t-46.5 30t-62 22t-79 8.5
q-83 0 -137.5 -29t-88.5 -72.5t-49 -93.5t-18 -91h-84zM765 316q0 -65 -10 -106t-30 -64q-13 -14 -37 -26t-60 -12t-60 12t-37 26q-20 23 -30 64t-10 106v69q0 125 40 169q13 14 37 26t60 12q21 0 36.5 -4t27.5 -10t20 -12.5t13 -11.5q15 -17 23 -39.5t11.5 -46t4.5 -46
t1 -37.5v-69z" />
    <glyph glyph-name="afii10048" unicode="&#x42e;" horiz-adv-x="989" 
d="M251 426v274h-156v-700h156v302h82q1 -60 19 -116.5t54 -100.5t91 -70.5t131 -26.5q44 0 79 8.5t62 22t46.5 30t33.5 31.5q27 30 42.5 64.5t24 70.5t11 70.5t2.5 64.5t-2.5 64.5t-11 70.5t-24 70.5t-42.5 64.5q-14 15 -33.5 31.5t-46.5 30t-62 22t-79 8.5
q-83 0 -137.5 -29t-88.5 -72.5t-49 -93.5t-18 -91h-84zM765 316q0 -65 -10 -106t-30 -64q-13 -14 -37 -26t-60 -12t-60 12t-37 26q-20 23 -30 64t-10 106v69q0 125 40 169q13 14 37 26t60 12q21 0 36.5 -4t27.5 -10t20 -12.5t13 -11.5q15 -17 23 -39.5t11.5 -46t4.5 -46
t1 -37.5v-69z" />
    <glyph glyph-name="afii10049" unicode="&#xdf;" horiz-adv-x="697" 
d="M602 700h-276q-49 0 -96.5 -12t-79.5 -38q-12 -9 -23.5 -23t-21 -32.5t-15.5 -42t-6 -51.5q0 -46 16 -73t30 -41q20 -20 47 -31t53 -15v-4q-35 -10 -52.5 -27t-28.5 -34q-13 -19 -20.5 -36t-15.5 -36l-78 -204h173l63 185q11 31 20.5 51.5t26.5 34.5q15 13 29.5 17
t30.5 4h68v-292h156v700zM446 580v-168h-101q-11 0 -33 3.5t-39 18.5q-8 8 -16.5 23t-8.5 39q0 20 6 34.5t15 24.5q17 18 38 21.5t38 3.5h101z" />
    <glyph glyph-name="afii10049" unicode="&#x42f;" horiz-adv-x="697" 
d="M602 700h-276q-49 0 -96.5 -12t-79.5 -38q-12 -9 -23.5 -23t-21 -32.5t-15.5 -42t-6 -51.5q0 -46 16 -73t30 -41q20 -20 47 -31t53 -15v-4q-35 -10 -52.5 -27t-28.5 -34q-13 -19 -20.5 -36t-15.5 -36l-78 -204h173l63 185q11 31 20.5 51.5t26.5 34.5q15 13 29.5 17
t30.5 4h68v-292h156v700zM446 580v-168h-101q-11 0 -33 3.5t-39 18.5q-8 8 -16.5 23t-8.5 39q0 20 6 34.5t15 24.5q17 18 38 21.5t38 3.5h101z" />
    <glyph glyph-name="afii10065" unicode="&#xe0;" horiz-adv-x="590" 
d="M387 0h138v311q0 19 -0.5 37.5t-5 36.5t-14.5 35.5t-29 34.5q-20 17 -44 27t-49 15.5t-49 7t-44 1.5q-44 0 -74.5 -4t-51 -9.5t-32 -11.5t-16.5 -9q-30 -20 -39.5 -53.5t7.5 -71.5l132 -3q-2 8 -2 19q0 20 9 29t16 13q13 8 27.5 9.5t28.5 1.5q13 0 33.5 -3t34.5 -18
q11 -12 13.5 -27t2.5 -26v-49h-57q-14 0 -37.5 -1t-50.5 -4t-54 -8.5t-48 -14.5q-26 -12 -42 -27.5t-25 -32.5t-12 -34.5t-3 -32.5q0 -42 15.5 -68.5t35.5 -43.5q32 -26 66.5 -32t63.5 -6q10 0 28.5 1.5t40 7.5t43.5 18.5t40 33.5h4v-49zM379 128q-23 -25 -46.5 -36
t-52.5 -11q-42 0 -59 20t-17 45t13 39.5t32.5 22t41.5 9t41 1.5h47v-90z" />
    <glyph glyph-name="afii10065" unicode="&#x430;" horiz-adv-x="590" 
d="M387 0h138v311q0 19 -0.5 37.5t-5 36.5t-14.5 35.5t-29 34.5q-20 17 -44 27t-49 15.5t-49 7t-44 1.5q-44 0 -74.5 -4t-51 -9.5t-32 -11.5t-16.5 -9q-30 -20 -39.5 -53.5t7.5 -71.5l132 -3q-2 8 -2 19q0 20 9 29t16 13q13 8 27.5 9.5t28.5 1.5q13 0 33.5 -3t34.5 -18
q11 -12 13.5 -27t2.5 -26v-49h-57q-14 0 -37.5 -1t-50.5 -4t-54 -8.5t-48 -14.5q-26 -12 -42 -27.5t-25 -32.5t-12 -34.5t-3 -32.5q0 -42 15.5 -68.5t35.5 -43.5q32 -26 66.5 -32t63.5 -6q10 0 28.5 1.5t40 7.5t43.5 18.5t40 33.5h4v-49zM379 128q-23 -25 -46.5 -36
t-52.5 -11q-42 0 -59 20t-17 45t13 39.5t32.5 22t41.5 9t41 1.5h47v-90z" />
    <glyph glyph-name="afii10066" unicode="&#xe1;" horiz-adv-x="585" 
d="M148 401v14q0 19 6 43.5t17 41.5q10 16 24.5 26.5t31 17.5t33.5 10.5t32 5.5l59 8q19 3 39 6.5t39.5 9.5t36 16t28.5 26q16 22 18.5 45.5t2.5 40.5v20h-124l-1 -14q-1 -16 -14 -25t-54 -14l-58 -8q-31 -5 -65.5 -18t-60.5 -35q-21 -18 -39.5 -46t-29.5 -71
q-7 -25 -10.5 -53t-5.5 -54.5t-2.5 -49t-0.5 -34.5q0 -32 2 -66t9 -67t20.5 -63.5t36.5 -55.5q32 -34 79.5 -52t98.5 -18t97.5 18t78.5 50q25 25 46.5 71t21.5 120q0 19 -2.5 41.5t-10 47t-21.5 49t-38 46.5q-29 26 -67.5 40.5t-89.5 14.5t-94.5 -20.5t-65.5 -64.5h-3z
M386 205q0 -22 -4 -47.5t-23 -43.5q-11 -10 -27 -16t-36 -6t-36 6t-27 16q-19 18 -23 43.5t-4 47.5v61q0 24 2.5 48.5t21.5 42.5q12 11 31 18t35 7q21 0 40 -7.5t30 -20.5q16 -18 18 -38t2 -43v-68z" />
    <glyph glyph-name="afii10066" unicode="&#x431;" horiz-adv-x="585" 
d="M148 401v14q0 19 6 43.5t17 41.5q10 16 24.5 26.5t31 17.5t33.5 10.5t32 5.5l59 8q19 3 39 6.5t39.5 9.5t36 16t28.5 26q16 22 18.5 45.5t2.5 40.5v20h-124l-1 -14q-1 -16 -14 -25t-54 -14l-58 -8q-31 -5 -65.5 -18t-60.5 -35q-21 -18 -39.5 -46t-29.5 -71
q-7 -25 -10.5 -53t-5.5 -54.5t-2.5 -49t-0.5 -34.5q0 -32 2 -66t9 -67t20.5 -63.5t36.5 -55.5q32 -34 79.5 -52t98.5 -18t97.5 18t78.5 50q25 25 46.5 71t21.5 120q0 19 -2.5 41.5t-10 47t-21.5 49t-38 46.5q-29 26 -67.5 40.5t-89.5 14.5t-94.5 -20.5t-65.5 -64.5h-3z
M386 205q0 -22 -4 -47.5t-23 -43.5q-11 -10 -27 -16t-36 -6t-36 6t-27 16q-19 18 -23 43.5t-4 47.5v61q0 24 2.5 48.5t21.5 42.5q12 11 31 18t35 7q21 0 40 -7.5t30 -20.5q16 -18 18 -38t2 -43v-68z" />
    <glyph glyph-name="afii10067" unicode="&#xe2;" horiz-adv-x="585" 
d="M77 0h251q35 0 77.5 8t74.5 31q34 24 44.5 53t10.5 52q0 33 -12 55t-26 34q-22 19 -55 25v2q30 10 51 32q17 20 21 41.5t4 34.5q0 26 -9.5 50.5t-37.5 44.5q-15 10 -32.5 16t-36 9.5t-36.5 4.5t-34 1h-255v-494zM223 394h93q10 0 21.5 -2t20.5 -11q4 -4 7.5 -11.5
t3.5 -18.5q0 -17 -14 -30q-8 -8 -19.5 -11t-21.5 -3h-91v87zM223 207h94q28 0 45 -13q8 -6 13.5 -15.5t5.5 -25.5q0 -7 -2 -15.5t-10 -17.5q-12 -14 -27 -17t-26 -3h-93v107z" />
    <glyph glyph-name="afii10067" unicode="&#x432;" horiz-adv-x="585" 
d="M77 0h251q35 0 77.5 8t74.5 31q34 24 44.5 53t10.5 52q0 33 -12 55t-26 34q-22 19 -55 25v2q30 10 51 32q17 20 21 41.5t4 34.5q0 26 -9.5 50.5t-37.5 44.5q-15 10 -32.5 16t-36 9.5t-36.5 4.5t-34 1h-255v-494zM223 394h93q10 0 21.5 -2t20.5 -11q4 -4 7.5 -11.5
t3.5 -18.5q0 -17 -14 -30q-8 -8 -19.5 -11t-21.5 -3h-91v87zM223 207h94q28 0 45 -13q8 -6 13.5 -15.5t5.5 -25.5q0 -7 -2 -15.5t-10 -17.5q-12 -14 -27 -17t-26 -3h-93v107z" />
    <glyph glyph-name="afii10068" unicode="&#xe3;" horiz-adv-x="443" 
d="M77 494v-494h146v384h215v110h-361z" />
    <glyph glyph-name="afii10068" unicode="&#x433;" horiz-adv-x="443" 
d="M77 494v-494h146v384h215v110h-361z" />
    <glyph glyph-name="afii10069" unicode="&#xe4;" horiz-adv-x="568" 
d="M490 494h-351l-1 -74q-1 -73 -5.5 -116.5t-12.5 -74.5q-11 -44 -27.5 -74.5t-31.5 -50.5h-46v-228h135v124h268v-124h135v228h-63v390zM344 390v-286h-143q14 21 24.5 44.5t18.5 52.5q4 14 7 32.5t5.5 38t4.5 38t2 33.5l1 47h80z" />
    <glyph glyph-name="afii10069" unicode="&#x434;" horiz-adv-x="568" 
d="M490 494h-351l-1 -74q-1 -73 -5.5 -116.5t-12.5 -74.5q-11 -44 -27.5 -74.5t-31.5 -50.5h-46v-228h135v124h268v-124h135v228h-63v390zM344 390v-286h-143q14 21 24.5 44.5t18.5 52.5q4 14 7 32.5t5.5 38t4.5 38t2 33.5l1 47h80z" />
    <glyph glyph-name="afii10070" unicode="&#xe5;" horiz-adv-x="560" 
d="M204 212h309v51q0 69 -18.5 112t-40.5 66q-28 29 -71.5 47t-97.5 18q-52 0 -94.5 -16.5t-78.5 -54.5q-20 -22 -32.5 -43.5t-19 -44t-8.5 -45.5t-2 -48q0 -23 2 -48.5t9.5 -51t21 -50.5t36.5 -47q24 -24 51 -37.5t53.5 -20.5t51 -9t42.5 -2q32 0 61.5 5t56.5 14
q44 15 85 41l-49 90q-34 -20 -69 -31q-20 -6 -37 -9t-40 -3t-46 6t-43 23q-14 14 -23 33.5t-9 39.5v15zM204 302v17q0 26 7 42t15 26q9 11 23.5 19t35.5 8q27 0 41.5 -11t20.5 -20q11 -16 13.5 -34.5t2.5 -29.5v-17h-159z" />
    <glyph glyph-name="afii10070" unicode="&#x435;" horiz-adv-x="560" 
d="M204 212h309v51q0 69 -18.5 112t-40.5 66q-28 29 -71.5 47t-97.5 18q-52 0 -94.5 -16.5t-78.5 -54.5q-20 -22 -32.5 -43.5t-19 -44t-8.5 -45.5t-2 -48q0 -23 2 -48.5t9.5 -51t21 -50.5t36.5 -47q24 -24 51 -37.5t53.5 -20.5t51 -9t42.5 -2q32 0 61.5 5t56.5 14
q44 15 85 41l-49 90q-34 -20 -69 -31q-20 -6 -37 -9t-40 -3t-46 6t-43 23q-14 14 -23 33.5t-9 39.5v15zM204 302v17q0 26 7 42t15 26q9 11 23.5 19t35.5 8q27 0 41.5 -11t20.5 -20q11 -16 13.5 -34.5t2.5 -29.5v-17h-159z" />
    <glyph glyph-name="afii10072" unicode="&#xe6;" horiz-adv-x="756" 
d="M451 494h-146v-185h-14q-8 0 -20.5 1.5t-21.5 9.5q-8 6 -12 15t-6 17l-17 57q-13 43 -32 61t-31 24q-16 8 -32.5 10t-32.5 2q-20 0 -39 -4.5t-37 -12.5l21 -98q14 8 22.5 9.5t12.5 1.5q15 0 21.5 -6.5t9.5 -12.5t6 -15l8 -24l7 -23q7 -23 25 -39.5t41 -19.5v-3
q-16 -4 -31.5 -10.5t-28.5 -17.5q-16 -13 -26 -28.5t-18 -33.5l-68 -169h154l50 141q5 13 11 28t18 24q10 8 21.5 10t20.5 2h18v-205h146v205h18q9 0 20.5 -2t21.5 -10q12 -9 18 -24t11 -28l50 -141h154l-68 169q-8 18 -18 33.5t-26 28.5q-13 11 -28.5 17.5t-31.5 10.5v3
q23 3 41 19.5t25 39.5l7 23l8 24t6 15t9.5 12.5t21.5 6.5q4 0 12.5 -1.5t22.5 -9.5l21 98q-18 8 -37 12.5t-39 4.5q-16 0 -32.5 -2t-32.5 -10q-12 -6 -31 -24t-32 -61l-17 -57q-2 -8 -6 -17t-12 -15q-9 -8 -21.5 -9.5t-20.5 -1.5h-14v185z" />
    <glyph glyph-name="afii10072" unicode="&#x436;" horiz-adv-x="756" 
d="M451 494h-146v-185h-14q-8 0 -20.5 1.5t-21.5 9.5q-8 6 -12 15t-6 17l-17 57q-13 43 -32 61t-31 24q-16 8 -32.5 10t-32.5 2q-20 0 -39 -4.5t-37 -12.5l21 -98q14 8 22.5 9.5t12.5 1.5q15 0 21.5 -6.5t9.5 -12.5t6 -15l8 -24l7 -23q7 -23 25 -39.5t41 -19.5v-3
q-16 -4 -31.5 -10.5t-28.5 -17.5q-16 -13 -26 -28.5t-18 -33.5l-68 -169h154l50 141q5 13 11 28t18 24q10 8 21.5 10t20.5 2h18v-205h146v205h18q9 0 20.5 -2t21.5 -10q12 -9 18 -24t11 -28l50 -141h154l-68 169q-8 18 -18 33.5t-26 28.5q-13 11 -28.5 17.5t-31.5 10.5v3
q23 3 41 19.5t25 39.5l7 23l8 24t6 15t9.5 12.5t21.5 6.5q4 0 12.5 -1.5t22.5 -9.5l21 98q-18 8 -37 12.5t-39 4.5q-16 0 -32.5 -2t-32.5 -10q-12 -6 -31 -24t-32 -61l-17 -57q-2 -8 -6 -17t-12 -15q-9 -8 -21.5 -9.5t-20.5 -1.5h-14v185z" />
    <glyph glyph-name="afii10073" unicode="&#xe7;" horiz-adv-x="517" 
d="M189 205h60q10 0 23.5 -1t26 -5.5t21 -15.5t8.5 -30q0 -11 -3.5 -21t-11.5 -18q-14 -14 -34 -18t-32 -4q-27 0 -49.5 4.5t-35.5 8.5q-36 10 -75 34l-57 -88q16 -11 40 -24t56 -22q31 -9 66.5 -13t63.5 -4q59 0 103 14t73 39q24 21 37 49t13 58q0 25 -8.5 44t-21.5 32
q-24 24 -62 30v4q10 4 22.5 11t23.5 19.5t18 31t7 44.5q0 40 -17 64.5t-33 37.5q-35 28 -78 34t-83 6q-62 0 -95 -7.5t-50 -15.5q-38 -19 -49.5 -52.5t2.5 -70.5l136 -5q-4 13 -2.5 22.5t5 15.5t8 9.5t6.5 4.5q10 5 20.5 6t18.5 1q26 0 43.5 -14.5t17.5 -42.5q0 -23 -13 -39
q-6 -8 -19.5 -14.5t-36.5 -6.5h-53v-92z" />
    <glyph glyph-name="afii10073" unicode="&#x437;" horiz-adv-x="517" 
d="M189 205h60q10 0 23.5 -1t26 -5.5t21 -15.5t8.5 -30q0 -11 -3.5 -21t-11.5 -18q-14 -14 -34 -18t-32 -4q-27 0 -49.5 4.5t-35.5 8.5q-36 10 -75 34l-57 -88q16 -11 40 -24t56 -22q31 -9 66.5 -13t63.5 -4q59 0 103 14t73 39q24 21 37 49t13 58q0 25 -8.5 44t-21.5 32
q-24 24 -62 30v4q10 4 22.5 11t23.5 19.5t18 31t7 44.5q0 40 -17 64.5t-33 37.5q-35 28 -78 34t-83 6q-62 0 -95 -7.5t-50 -15.5q-38 -19 -49.5 -52.5t2.5 -70.5l136 -5q-4 13 -2.5 22.5t5 15.5t8 9.5t6.5 4.5q10 5 20.5 6t18.5 1q26 0 43.5 -14.5t17.5 -42.5q0 -23 -13 -39
q-6 -8 -19.5 -14.5t-36.5 -6.5h-53v-92z" />
    <glyph glyph-name="afii10074" unicode="&#xe8;" horiz-adv-x="638" 
d="M561 494h-146l-193 -305h-4l5 92v213h-146v-494h146l193 305h4l-5 -92v-213h146v494z" />
    <glyph glyph-name="afii10074" unicode="&#x438;" horiz-adv-x="638" 
d="M561 494h-146l-193 -305h-4l5 92v213h-146v-494h146l193 305h4l-5 -92v-213h146v494z" />
    <glyph glyph-name="afii10075" unicode="&#xe9;" horiz-adv-x="638" 
d="M561 494h-146l-193 -305h-4l5 92v213h-146v-494h146l193 305h4l-5 -92v-213h146v494zM365 710l1 -5q1 -4 2 -7t1 -14q0 -9 -1.5 -16.5t-9.5 -15.5q-9 -8 -19 -10t-20 -2t-20 2t-19 10q-8 8 -9.5 15.5t-1.5 16.5q0 11 1 14t2 7l1 5l-95 6q-6 -12 -8 -22.5t-2 -23.5
q0 -30 10 -52t37 -39q22 -14 50 -19t54 -5t54 5t50 19q27 17 37 39t10 52q0 13 -2 23.5t-8 22.5z" />
    <glyph glyph-name="afii10075" unicode="&#x439;" horiz-adv-x="638" 
d="M561 494h-146l-193 -305h-4l5 92v213h-146v-494h146l193 305h4l-5 -92v-213h146v494zM365 710l1 -5q1 -4 2 -7t1 -14q0 -9 -1.5 -16.5t-9.5 -15.5q-9 -8 -19 -10t-20 -2t-20 2t-19 10q-8 8 -9.5 15.5t-1.5 16.5q0 11 1 14t2 7l1 5l-95 6q-6 -12 -8 -22.5t-2 -23.5
q0 -30 10 -52t37 -39q22 -14 50 -19t54 -5t54 5t50 19q27 17 37 39t10 52q0 13 -2 23.5t-8 22.5z" />
    <glyph glyph-name="afii10076" unicode="&#xea;" horiz-adv-x="563" 
d="M223 494h-146v-494h146v205h43q9 0 20.5 -2t21.5 -10q12 -9 18 -24t11 -28l50 -141h159l-68 169q-6 14 -16.5 31t-27.5 31q-10 7 -21 12.5t-20.5 8.5t-16 5t-7.5 2v3q31 4 48.5 23t22.5 36l7 23l8 24t6 15t9.5 12.5t21.5 6.5q4 0 12.5 -1.5t22.5 -9.5l21 98
q-25 11 -45 14t-36 3q-17 0 -32.5 -2t-32.5 -10q-12 -6 -31 -24t-32 -61l-17 -57q-2 -8 -6 -17t-12 -15q-9 -8 -21.5 -9.5t-20.5 -1.5h-39v185z" />
    <glyph glyph-name="afii10076" unicode="&#x43a;" horiz-adv-x="563" 
d="M223 494h-146v-494h146v205h43q9 0 20.5 -2t21.5 -10q12 -9 18 -24t11 -28l50 -141h159l-68 169q-6 14 -16.5 31t-27.5 31q-10 7 -21 12.5t-20.5 8.5t-16 5t-7.5 2v3q31 4 48.5 23t22.5 36l7 23l8 24t6 15t9.5 12.5t21.5 6.5q4 0 12.5 -1.5t22.5 -9.5l21 98
q-25 11 -45 14t-36 3q-17 0 -32.5 -2t-32.5 -10q-12 -6 -31 -24t-32 -61l-17 -57q-2 -8 -6 -17t-12 -15q-9 -8 -21.5 -9.5t-20.5 -1.5h-39v185z" />
    <glyph glyph-name="afii10077" unicode="&#xeb;" horiz-adv-x="557" 
d="M480 494h-359l-1 -75q0 -24 -1 -51.5t-2 -54t-2.5 -50.5t-2.5 -43q-1 -10 -2.5 -23.5t-6 -28t-12 -28.5t-20.5 -23q-15 -11 -36 -15t-40 -1l15 -113q38 -4 75.5 4.5t63.5 25.5q22 15 37 33.5t24 38.5t13.5 39t6.5 35q3 19 5.5 49t4.5 82l3 95h91v-390h146v494z" />
    <glyph glyph-name="afii10077" unicode="&#x43b;" horiz-adv-x="557" 
d="M480 494h-359l-1 -75q0 -24 -1 -51.5t-2 -54t-2.5 -50.5t-2.5 -43q-1 -10 -2.5 -23.5t-6 -28t-12 -28.5t-20.5 -23q-15 -11 -36 -15t-40 -1l15 -113q38 -4 75.5 4.5t63.5 25.5q22 15 37 33.5t24 38.5t13.5 39t6.5 35q3 19 5.5 49t4.5 82l3 95h91v-390h146v494z" />
    <glyph glyph-name="afii10078" unicode="&#xec;" horiz-adv-x="663" 
d="M218 494h-141v-494h131v166l-7 121l100 -185h46l100 185l-7 -121v-166h146v494h-137l-116 -216z" />
    <glyph glyph-name="afii10078" unicode="&#x43c;" horiz-adv-x="663" 
d="M218 494h-141v-494h131v166l-7 121l100 -185h46l100 185l-7 -121v-166h146v494h-137l-116 -216z" />
    <glyph glyph-name="afii10079" unicode="&#xed;" horiz-adv-x="612" 
d="M535 494h-146v-182h-166v182h-146v-494h146v202h166v-202h146v494z" />
    <glyph glyph-name="afii10079" unicode="&#x43d;" horiz-adv-x="612" 
d="M535 494h-146v-182h-166v182h-146v-494h146v202h166v-202h146v494z" />
    <glyph glyph-name="afii10080" unicode="&#xee;" horiz-adv-x="578" 
d="M289 506q-44 0 -88 -11.5t-82 -46.5q-24 -22 -38.5 -47.5t-22.5 -51.5t-10.5 -52t-2.5 -50t2.5 -50t10.5 -52t22.5 -51.5t38.5 -47.5q38 -35 82 -46.5t88 -11.5t88 11.5t82 46.5q24 22 38.5 47.5t22.5 51.5t10.5 52t2.5 50t-2.5 50t-10.5 52t-22.5 51.5t-38.5 47.5
q-38 35 -82 46.5t-88 11.5zM379 206q0 -18 -3 -44t-24 -46q-13 -12 -30 -18t-33 -6t-33 6t-30 18q-21 20 -24 46t-3 44v82q0 18 3 44t24 46q13 12 30 18t33 6t33 -6t30 -18q21 -20 24 -46t3 -44v-82z" />
    <glyph glyph-name="afii10080" unicode="&#x43e;" horiz-adv-x="578" 
d="M289 506q-44 0 -88 -11.5t-82 -46.5q-24 -22 -38.5 -47.5t-22.5 -51.5t-10.5 -52t-2.5 -50t2.5 -50t10.5 -52t22.5 -51.5t38.5 -47.5q38 -35 82 -46.5t88 -11.5t88 11.5t82 46.5q24 22 38.5 47.5t22.5 51.5t10.5 52t2.5 50t-2.5 50t-10.5 52t-22.5 51.5t-38.5 47.5
q-38 35 -82 46.5t-88 11.5zM379 206q0 -18 -3 -44t-24 -46q-13 -12 -30 -18t-33 -6t-33 6t-30 18q-21 20 -24 46t-3 44v82q0 18 3 44t24 46q13 12 30 18t33 6t33 -6t30 -18q21 -20 24 -46t3 -44v-82z" />
    <glyph glyph-name="afii10081" unicode="&#xef;" horiz-adv-x="600" 
d="M523 494h-446v-494h146v384h154v-384h146v494z" />
    <glyph glyph-name="afii10081" unicode="&#x43f;" horiz-adv-x="600" 
d="M523 494h-446v-494h146v384h154v-384h146v494z" />
    <glyph glyph-name="afii10082" unicode="&#xf0;" horiz-adv-x="590" 
d="M223 -218v233q10 -6 35 -16.5t73 -10.5q53 0 86.5 15.5t53.5 32.5q25 22 40 49.5t22.5 55.5t9.5 55.5t2 50.5q0 24 -1.5 48.5t-7 49t-17 48.5t-31.5 47q-26 30 -63.5 48t-88.5 18q-38 0 -71.5 -13t-57.5 -42v43h-130v-712h146zM223 362q15 16 38 28t49 12q11 0 29 -4.5
t32 -22.5t17 -41.5t3 -42.5v-83q0 -23 -3.5 -47t-18.5 -42q-7 -8 -22.5 -17.5t-43.5 -9.5q-15 0 -36.5 5t-43.5 21v244z" />
    <glyph glyph-name="afii10082" unicode="&#x440;" horiz-adv-x="590" 
d="M223 -218v233q10 -6 35 -16.5t73 -10.5q53 0 86.5 15.5t53.5 32.5q25 22 40 49.5t22.5 55.5t9.5 55.5t2 50.5q0 24 -1.5 48.5t-7 49t-17 48.5t-31.5 47q-26 30 -63.5 48t-88.5 18q-38 0 -71.5 -13t-57.5 -42v43h-130v-712h146zM223 362q15 16 38 28t49 12q11 0 29 -4.5
t32 -22.5t17 -41.5t3 -42.5v-83q0 -23 -3.5 -47t-18.5 -42q-7 -8 -22.5 -17.5t-43.5 -9.5q-15 0 -36.5 5t-43.5 21v244z" />
    <glyph glyph-name="afii10083" unicode="&#xf1;" horiz-adv-x="552" 
d="M467 140q-18 -11 -40.5 -21.5t-43.5 -16.5q-6 -2 -24 -6t-40 -4q-20 0 -44.5 6t-40.5 22q-11 11 -17 24.5t-9 27t-3.5 26.5t-0.5 23v78q0 22 3.5 43t23.5 39q15 14 32 17.5t31 3.5q13 0 24.5 -3t21.5 -13q12 -11 14.5 -24t2.5 -25q0 -13 -3 -28l141 10q5 12 7 23.5
t2 24.5q0 35 -13 61t-45 46q-34 21 -70.5 26.5t-69.5 5.5q-16 0 -35.5 -1.5t-40.5 -6t-42.5 -13t-41.5 -22.5q-32 -22 -51 -50.5t-29 -58.5t-13 -58.5t-3 -51.5q0 -57 19 -110t73 -95q38 -29 76 -40t85 -11q40 0 70 6t53 14t43 17.5t43 25.5z" />
    <glyph glyph-name="afii10083" unicode="&#x441;" horiz-adv-x="552" 
d="M467 140q-18 -11 -40.5 -21.5t-43.5 -16.5q-6 -2 -24 -6t-40 -4q-20 0 -44.5 6t-40.5 22q-11 11 -17 24.5t-9 27t-3.5 26.5t-0.5 23v78q0 22 3.5 43t23.5 39q15 14 32 17.5t31 3.5q13 0 24.5 -3t21.5 -13q12 -11 14.5 -24t2.5 -25q0 -13 -3 -28l141 10q5 12 7 23.5
t2 24.5q0 35 -13 61t-45 46q-34 21 -70.5 26.5t-69.5 5.5q-16 0 -35.5 -1.5t-40.5 -6t-42.5 -13t-41.5 -22.5q-32 -22 -51 -50.5t-29 -58.5t-13 -58.5t-3 -51.5q0 -57 19 -110t73 -95q38 -29 76 -40t85 -11q40 0 70 6t53 14t43 17.5t43 25.5z" />
    <glyph glyph-name="afii10084" unicode="&#xf2;" horiz-adv-x="464" 
d="M10 494v-110h149v-384h146v384h149v110h-444z" />
    <glyph glyph-name="afii10084" unicode="&#x442;" horiz-adv-x="464" 
d="M10 494v-110h149v-384h146v384h149v110h-444z" />
    <glyph glyph-name="afii10085" unicode="&#xf3;" horiz-adv-x="508" 
d="M-5 494l210 -514l-11 -33q-2 -7 -6 -16t-9 -17q-7 -11 -18 -19.5t-31 -8.5q-19 0 -39 10q-5 2 -13.5 7.5t-17.5 15.5l-59 -77q11 -11 24 -22t30 -19q22 -11 41.5 -15t42.5 -4q34 0 63 8t53 29q25 22 38 50t20 49l190 576h-129l-68 -224q-10 -32 -17.5 -62t-15.5 -70h-4
q-4 34 -11 57.5t-16 48.5l-93 250h-154z" />
    <glyph glyph-name="afii10085" unicode="&#x443;" horiz-adv-x="508" 
d="M-5 494l210 -514l-11 -33q-2 -7 -6 -16t-9 -17q-7 -11 -18 -19.5t-31 -8.5q-19 0 -39 10q-5 2 -13.5 7.5t-17.5 15.5l-59 -77q11 -11 24 -22t30 -19q22 -11 41.5 -15t42.5 -4q34 0 63 8t53 29q25 22 38 50t20 49l190 576h-129l-68 -224q-10 -32 -17.5 -62t-15.5 -70h-4
q-4 34 -11 57.5t-16 48.5l-93 250h-154z" />
    <glyph glyph-name="afii10086" unicode="&#xf4;" horiz-adv-x="790" 
d="M468 700h-146v-212q-23 11 -39 14.5t-30 3.5q-49 0 -83 -17t-54 -40q-32 -36 -49 -90.5t-17 -111.5q0 -25 3.5 -52t10.5 -53t18 -50t27 -42q24 -28 61 -45t82 -17q28 0 44.5 6t25.5 12v-224h146v224q9 -6 25.5 -12t44.5 -6q45 0 82 17t61 45q16 18 27 42t18 50t10.5 53
t3.5 52q0 57 -17 111.5t-49 90.5q-20 23 -54 40t-83 17q-14 0 -30 -3.5t-39 -14.5v212zM463 390q10 5 24.5 8.5t25.5 3.5q18 0 32 -6t25 -23q14 -20 17 -44t3 -44v-70q0 -23 -1.5 -47.5t-17.5 -46.5q-8 -11 -21.5 -20t-36.5 -9q-9 0 -25 3.5t-25 8.5v286zM327 104
q-9 -5 -25 -8.5t-25 -3.5q-23 0 -36.5 9t-21.5 20q-16 21 -17.5 46t-1.5 48v70q0 20 3 44t17 44q11 17 25 23t32 6q11 0 25.5 -3.5t24.5 -8.5v-286z" />
    <glyph glyph-name="afii10086" unicode="&#x444;" horiz-adv-x="790" 
d="M468 700h-146v-212q-23 11 -39 14.5t-30 3.5q-49 0 -83 -17t-54 -40q-32 -36 -49 -90.5t-17 -111.5q0 -25 3.5 -52t10.5 -53t18 -50t27 -42q24 -28 61 -45t82 -17q28 0 44.5 6t25.5 12v-224h146v224q9 -6 25.5 -12t44.5 -6q45 0 82 17t61 45q16 18 27 42t18 50t10.5 53
t3.5 52q0 57 -17 111.5t-49 90.5q-20 23 -54 40t-83 17q-14 0 -30 -3.5t-39 -14.5v212zM463 390q10 5 24.5 8.5t25.5 3.5q18 0 32 -6t25 -23q14 -20 17 -44t3 -44v-70q0 -23 -1.5 -47.5t-17.5 -46.5q-8 -11 -21.5 -20t-36.5 -9q-9 0 -25 3.5t-25 8.5v286zM327 104
q-9 -5 -25 -8.5t-25 -3.5q-23 0 -36.5 9t-21.5 20q-16 21 -17.5 46t-1.5 48v70q0 20 3 44t17 44q11 17 25 23t32 6q11 0 25.5 -3.5t24.5 -8.5v-286z" />
    <glyph glyph-name="afii10087" unicode="&#xf5;" horiz-adv-x="511" 
d="M268 355l-82 139h-166l152 -234l-172 -260h130l108 172l101 -172h167l-173 270l144 224h-125z" />
    <glyph glyph-name="afii10087" unicode="&#x445;" horiz-adv-x="511" 
d="M268 355l-82 139h-166l152 -234l-172 -260h130l108 172l101 -172h167l-173 270l144 224h-125z" />
    <glyph glyph-name="afii10088" unicode="&#xf6;" horiz-adv-x="623" 
d="M372 494v-390h-149v390h-146v-494h376v-124h135v228h-70v390h-146z" />
    <glyph glyph-name="afii10088" unicode="&#x446;" horiz-adv-x="623" 
d="M372 494v-390h-149v390h-146v-494h376v-124h135v228h-70v390h-146z" />
    <glyph glyph-name="afii10089" unicode="&#xf7;" horiz-adv-x="562" 
d="M485 494h-146v-206q-20 -6 -37.5 -8t-33.5 -2q-9 0 -29 2.5t-33 15.5q-10 10 -12.5 22t-2.5 22v154h-146v-154q0 -31 6.5 -62t31.5 -57q15 -15 34 -24.5t39.5 -14.5t41 -6.5t37.5 -1.5q30 0 54.5 3t49.5 10v-187h146v494z" />
    <glyph glyph-name="afii10089" unicode="&#x447;" horiz-adv-x="562" 
d="M485 494h-146v-206q-20 -6 -37.5 -8t-33.5 -2q-9 0 -29 2.5t-33 15.5q-10 10 -12.5 22t-2.5 22v154h-146v-154q0 -31 6.5 -62t31.5 -57q15 -15 34 -24.5t39.5 -14.5t41 -6.5t37.5 -1.5q30 0 54.5 3t49.5 10v-187h146v494z" />
    <glyph glyph-name="afii10090" unicode="&#xf8;" horiz-adv-x="812" 
d="M77 0h658v494h-146v-390h-110v390h-146v-390h-110v390h-146v-494z" />
    <glyph glyph-name="afii10090" unicode="&#x448;" horiz-adv-x="812" 
d="M77 0h658v494h-146v-390h-110v390h-146v-390h-110v390h-146v-494z" />
    <glyph glyph-name="afii10091" unicode="&#xf9;" horiz-adv-x="840" 
d="M77 0h593v-124h135v228h-70v390h-146v-390h-110v390h-146v-390h-110v390h-146v-494z" />
    <glyph glyph-name="afii10091" unicode="&#x449;" horiz-adv-x="840" 
d="M77 0h593v-124h135v228h-70v390h-146v-390h-110v390h-146v-390h-110v390h-146v-494z" />
    <glyph glyph-name="afii10092" unicode="&#xfa;" 
d="M279 327v167h-274v-110h128v-384h237q75 0 118.5 18.5t66 44.5t29 54.5t6.5 48.5q0 29 -9.5 58t-32.5 52t-63.5 37t-101.5 14h-104zM279 223h82q13 0 27.5 -2t25.5 -10q7 -5 14.5 -17t7.5 -33q0 -10 -3 -20.5t-13 -19.5q-12 -12 -26.5 -14.5t-29.5 -2.5h-85v119z" />
    <glyph glyph-name="afii10092" unicode="&#x44a;" 
d="M279 327v167h-274v-110h128v-384h237q75 0 118.5 18.5t66 44.5t29 54.5t6.5 48.5q0 29 -9.5 58t-32.5 52t-63.5 37t-101.5 14h-104zM279 223h82q13 0 27.5 -2t25.5 -10q7 -5 14.5 -17t7.5 -33q0 -10 -3 -20.5t-13 -19.5q-12 -12 -26.5 -14.5t-29.5 -2.5h-85v119z" />
    <glyph glyph-name="afii10093" unicode="&#xfb;" horiz-adv-x="828" 
d="M223 327v167h-146v-494h237q75 0 118.5 18.5t66 44.5t29 54.5t6.5 48.5q0 29 -9.5 58t-32.5 52t-63.5 37t-101.5 14h-104zM223 223h82q13 0 27.5 -2t25.5 -10q7 -5 14.5 -17t7.5 -33q0 -10 -3 -20.5t-13 -19.5q-12 -12 -26.5 -14.5t-29.5 -2.5h-85v119zM605 494v-494h146
v494h-146z" />
    <glyph glyph-name="afii10093" unicode="&#x44b;" horiz-adv-x="828" 
d="M223 327v167h-146v-494h237q75 0 118.5 18.5t66 44.5t29 54.5t6.5 48.5q0 29 -9.5 58t-32.5 52t-63.5 37t-101.5 14h-104zM223 223h82q13 0 27.5 -2t25.5 -10q7 -5 14.5 -17t7.5 -33q0 -10 -3 -20.5t-13 -19.5q-12 -12 -26.5 -14.5t-29.5 -2.5h-85v119zM605 494v-494h146
v494h-146z" />
    <glyph glyph-name="afii10094" unicode="&#xfc;" horiz-adv-x="564" 
d="M223 327v167h-146v-494h237q75 0 118.5 18.5t66 44.5t29 54.5t6.5 48.5q0 29 -9.5 58t-32.5 52t-63.5 37t-101.5 14h-104zM223 223h82q13 0 27.5 -2t25.5 -10q7 -5 14.5 -17t7.5 -33q0 -10 -3 -20.5t-13 -19.5q-12 -12 -26.5 -14.5t-29.5 -2.5h-85v119z" />
    <glyph glyph-name="afii10094" unicode="&#x44c;" horiz-adv-x="564" 
d="M223 327v167h-146v-494h237q75 0 118.5 18.5t66 44.5t29 54.5t6.5 48.5q0 29 -9.5 58t-32.5 52t-63.5 37t-101.5 14h-104zM223 223h82q13 0 27.5 -2t25.5 -10q7 -5 14.5 -17t7.5 -33q0 -10 -3 -20.5t-13 -19.5q-12 -12 -26.5 -14.5t-29.5 -2.5h-85v119z" />
    <glyph glyph-name="afii10095" unicode="&#xfd;" horiz-adv-x="549" 
d="M195 350q-3 10 -2 27t20 27q11 5 25 7.5t25 2.5q14 0 31.5 -5t29.5 -15q20 -17 25.5 -40t5.5 -42v-19h-152v-92h152v-12q0 -26 -8 -41.5t-12 -20.5q-17 -21 -40 -28t-43 -7q-22 0 -40.5 2.5t-39.5 10.5q-24 9 -42 19t-28 17l-57 -88q21 -14 47 -26.5t49 -20.5
q28 -9 59.5 -13.5t60.5 -4.5q64 0 110.5 19.5t77 54.5t45.5 83t15 105t-15 108.5t-63 91.5q-42 35 -90 45.5t-90 10.5q-18 0 -37.5 -1t-39 -4t-37.5 -8t-31 -12q-38 -20 -49.5 -54t2.5 -72z" />
    <glyph glyph-name="afii10095" unicode="&#x44d;" horiz-adv-x="549" 
d="M195 350q-3 10 -2 27t20 27q11 5 25 7.5t25 2.5q14 0 31.5 -5t29.5 -15q20 -17 25.5 -40t5.5 -42v-19h-152v-92h152v-12q0 -26 -8 -41.5t-12 -20.5q-17 -21 -40 -28t-43 -7q-22 0 -40.5 2.5t-39.5 10.5q-24 9 -42 19t-28 17l-57 -88q21 -14 47 -26.5t49 -20.5
q28 -9 59.5 -13.5t60.5 -4.5q64 0 110.5 19.5t77 54.5t45.5 83t15 105t-15 108.5t-63 91.5q-42 35 -90 45.5t-90 10.5q-18 0 -37.5 -1t-39 -4t-37.5 -8t-31 -12q-38 -20 -49.5 -54t2.5 -72z" />
    <glyph glyph-name="afii10096" unicode="&#xfe;" horiz-adv-x="816" 
d="M223 312v182h-146v-494h146v202h72q1 -15 5 -36.5t13 -45.5t25 -47.5t41.5 -42.5t61.5 -30.5t86 -11.5q44 0 88 11.5t82 46.5q24 22 38.5 47.5t22.5 51.5t10.5 52t2.5 50t-2.5 50t-10.5 52t-22.5 51.5t-38.5 47.5q-38 35 -82 46.5t-88 11.5q-68 0 -110.5 -20.5
t-67.5 -50.5t-36 -63.5t-15 -59.5h-75zM617 206q0 -18 -3 -44t-24 -46q-13 -12 -30 -18t-33 -6t-33 6t-30 18q-21 20 -24 46t-3 44v82q0 18 3 44t24 46q13 12 30 18t33 6t33 -6t30 -18q21 -20 24 -46t3 -44v-82z" />
    <glyph glyph-name="afii10096" unicode="&#x44e;" horiz-adv-x="816" 
d="M223 312v182h-146v-494h146v202h72q1 -15 5 -36.5t13 -45.5t25 -47.5t41.5 -42.5t61.5 -30.5t86 -11.5q44 0 88 11.5t82 46.5q24 22 38.5 47.5t22.5 51.5t10.5 52t2.5 50t-2.5 50t-10.5 52t-22.5 51.5t-38.5 47.5q-38 35 -82 46.5t-88 11.5q-68 0 -110.5 -20.5
t-67.5 -50.5t-36 -63.5t-15 -59.5h-75zM617 206q0 -18 -3 -44t-24 -46q-13 -12 -30 -18t-33 -6t-33 6t-30 18q-21 20 -24 46t-3 44v82q0 18 3 44t24 46q13 12 30 18t33 6t33 -6t30 -18q21 -20 24 -46t3 -44v-82z" />
    <glyph glyph-name="afii10097" unicode="&#xff;" horiz-adv-x="580" 
d="M510 494h-255q-13 0 -31 -1t-37 -5t-38 -10.5t-34 -18.5q-21 -17 -35.5 -44.5t-14.5 -58.5q0 -27 10.5 -49t26.5 -37q16 -14 36 -23t37 -12v-4q-14 -5 -29.5 -13.5t-29.5 -26.5q-14 -17 -20.5 -33t-11.5 -30l-49 -128h153l47 139q5 14 12.5 23.5t15.5 14.5q9 5 17.5 6.5
t19.5 1.5h64v-185h146v494zM364 390v-101h-78q-20 0 -33 4.5t-20.5 12t-10.5 15.5t-3 16t3 17.5t9.5 17.5t18.5 13t30 5h84z" />
    <glyph glyph-name="afii10097" unicode="&#x44f;" horiz-adv-x="580" 
d="M510 494h-255q-13 0 -31 -1t-37 -5t-38 -10.5t-34 -18.5q-21 -17 -35.5 -44.5t-14.5 -58.5q0 -27 10.5 -49t26.5 -37q16 -14 36 -23t37 -12v-4q-14 -5 -29.5 -13.5t-29.5 -26.5q-14 -17 -20.5 -33t-11.5 -30l-49 -128h153l47 139q5 14 12.5 23.5t15.5 14.5q9 5 17.5 6.5
t19.5 1.5h64v-185h146v494zM364 390v-101h-78q-20 0 -33 4.5t-20.5 12t-10.5 15.5t-3 16t3 17.5t9.5 17.5t18.5 13t30 5h84z" />
    <glyph glyph-name="a" unicode="a" horiz-adv-x="590" 
d="M387 0h138v311q0 19 -0.5 37.5t-5 36.5t-14.5 35.5t-29 34.5q-20 17 -44 27t-49 15.5t-49 7t-44 1.5q-44 0 -74.5 -4t-51 -9.5t-32 -11.5t-16.5 -9q-30 -20 -39.5 -53.5t7.5 -71.5l132 -3q-2 8 -2 19q0 20 9 29t16 13q13 8 27.5 9.5t28.5 1.5q13 0 33.5 -3t34.5 -18
q11 -12 13.5 -27t2.5 -26v-49h-57q-14 0 -37.5 -1t-50.5 -4t-54 -8.5t-48 -14.5q-26 -12 -42 -27.5t-25 -32.5t-12 -34.5t-3 -32.5q0 -42 15.5 -68.5t35.5 -43.5q32 -26 66.5 -32t63.5 -6q10 0 28.5 1.5t40 7.5t43.5 18.5t40 33.5h4v-49zM379 128q-23 -25 -46.5 -36
t-52.5 -11q-42 0 -59 20t-17 45t13 39.5t32.5 22t41.5 9t41 1.5h47v-90z" />
    </font>
</defs>
</svg>
